Всегда рабочее зеркало без VPN и Proxy просто перед .vidak.icu напиши любое слово или цифру, Пример http://kzj4.vidak.icu

Лицензия

MVO

1 сезон

1

1 сезон

iTunes

1 сезон

13

1 сезон

Deluxe

pack

Рекомендуем

Repack

30

ВАЖНО

RePack

MK11

RePack

jed

RePack

fifa19

RePack

RDR2

RePack

NEED FOR SPEED™ PAYBACK

Кинопоиск HD

6 сезон

 Острые козырьки 6 сезон

Все сериалы

все сериалы на PB.wtf

RePack

FAR CRY 5
  
Magnet ссылка

Мир Юрского периода: Господство / Jurassic World Dominion (Колин Треворроу) [2022, Фантастика, боевик, триллер, приключения, BDRip 1080p] DUB [Jaskier] +3xMVO pb.wtf

Мир Юрского периода: Господство через торрент pb.wtf

Раздают: 22 [ 2 MB/s ]
Размер: 17.64 GB | Добавлен: 16 д. назад | Торрент скачан:173 раза
Смотреть онлайн Мир Юрского периода: Господство | Скачать    Ребята, помогите собрать деньги на оплату серверов!!!

09-07-2022 04:40 Мир Юрского периода: Господство Скачать торрент  

Мир Юрского периода: Господство
Jurassic World Dominion

Год выпуска: 2022
Страна: США, Китай, Мальта
Выпущено: Amblin Entertainment, Latina Pictures, Perfect World (Beijing) Pictures Co., Universal Pictures
Жанр: Фантастика, боевик, триллер, приключения
Продолжительность: 02:26:57
Перевод(ы):
#1: Дублированный | Jaskier
#2: Профессиональный многоголосый | Lostfilm
#3: Профессиональный многоголосый | Jaskier
#4: Профессиональный многоголосый | NewComers
Субтитры: Русские (Forced, full), английские

Режиссер: Колин Треворроу

rating

В ролях: Крис Прэтт, Брайс Даллас Ховард, Лора Дерн, Сэм Нилл, Джефф Голдблюм, ДеВанда Уайз, Мамуду Ати, Изабелла Сермон, Кэмпбелл Скотт, Б. Д. Вонг

Описание: После уничтожения острова Нублар динозавры вырвались на свободу и заполнили планету. Людям удается поддерживать хрупкое равновесие, определяющее мирное сосуществование на Земле. Но как долго человек сможет сохранять свое господство, живя по соседству с самыми устрашающими существами в истории?

Качество: BDRip 1080p
Формат: MKV

Видео: MPEG-4 AVC, 1920x960, 14.0 Mbit/s, 23.976 fps
Аудио #01: 48 kHz, AC3, 5.1, 448 Kbps | Дублированный | Jaskier | RUS |
Аудио #02: 48 kHz, DTS, 5.1, 768 Kbps | Профессиональный многоголосый | Lostfilm | RUS |
Аудио #03: 48 kHz, AC3, 5.1, 448 Kbps | Профессиональный многоголосый | Lostfilm | RUS |
Аудио #04: 48 kHz, AC3, 5.1, 448 Kbps | Профессиональный многоголосый | Jaskier | RUS |
Аудио #05: 48 kHz, AC3, 5.1, 448 Kbps | Профессиональный многоголосый | NewComers | RUS |
Аудио #06: 48 kHz, AC3, 5.1, 640 Kbps | Оригинал | ENG |
скриншот  скриншот  скриншот  скриншот  скриншот  скриншот  

General
Unique ID : 175802039062507733804663062628555089659 (0x84423DBACAF4724782B8210C880CE6FB)
Complete name : D:Jurassic.World.Dominion.2022.BDRip.1080p.seleZen.mkv
Format : Matroska
Format version : Version 4
File size : 17.6 GiB
Duration : 2 h 26 min
Overall bit rate : 17.2 Mb/s
Movie name : Jurassic World Dominion 2022 from seleZen
Encoded date : UTC 2022-08-01 09:12:20
Writing application : mkvmerge v59.0.0 ('Shining Star') 64-bit
Writing library : libebml v1.4.2 + libmatroska v1.6.4

Video
ID : 1
Format : AVC
Format/Info : Advanced Video Codec
Format profile : [email protected]
Format settings : CABAC / 4 Ref Frames
Format settings, CABAC : Yes
Format settings, Reference : 4 frames
Codec ID : V_MPEG4/ISO/AVC
Duration : 2 h 26 min
Bit rate : 14.0 Mb/s
Width : 1 920 pixels
Height : 960 pixels
Display aspect ratio : 2.000
Frame rate mode : Constant
Frame rate : 23.976 (24000/1001) FPS
Color space : YUV
Chroma subsampling : 4:2:0
Bit depth : 8 bits
Scan type : Progressive
Bits/(Pixel*Frame) : 0.316
Stream size : 14.3 GiB (81%)
Title : CHD
Writing library : x264 core 157 r2867+150 7e91e0e t_mod_Custom_2 [[email protected] X86_64]
Encoding settings : cabac=1 / ref=4 / deblock=1:-3:-3 / analyse=0x3:0x133 / me=umh / subme=11 / psy=1 / fade_compensate=0.00 / psy_rd=0.90:0.10 / mixed_ref=1 / me_range=64 / chroma_me=1 / trellis=2 / 8x8dct=1 / cqm=0 / deadzone=21, 11 / fast_pskip=0 / chroma_qp_offset=-4 / threads=30 / lookahead_threads=5 / sliced_threads=0 / nr=0 / decimate=1 / interlaced=0 / bluray_compat=0 / constrained_intra=0 / fgo=0 / bframes=8 / b_pyramid=2 / b_adapt=2 / b_bias=0 / direct=3 / weightb=1 / open_gop=0 / weightp=2 / keyint=250 / keyint_min=23 / scenecut=40 / intra_refresh=0 / rc_lookahead=60 / rc=crf / mbtree=0 / crf=18.0000 / qcomp=0.70 / qpmin=0:0:0 / qpmax=69:69:69 / qpstep=4 / vbv_maxrate=35000 / vbv_bufsize=35000 / crf_max=0.0 / nal_hrd=none / filler=0 / ip_ratio=1.40 / pb_ratio=1.30 / aq=3:1.00 / aq-sensitivity=10.00 / aq-factor=1.00:1.00:1.00 / aq2=0 / aq3=0
Language : English
Default : Yes
Forced : No

Audio #1
ID : 2
Format : AC-3
Format/Info : Audio Coding 3
Commercial name : Dolby Digital
Codec ID : A_AC3
Duration : 2 h 26 min
Bit rate mode : Constant
Bit rate : 448 kb/s
Channel(s) : 6 channels
Channel layout : L R C LFE Ls Rs
Sampling rate : 48.0 kHz
Frame rate : 31.250 FPS (1536 SPF)
Compression mode : Lossy
Stream size : 471 MiB (3%)
Title : Dub [Jaskier]
Language : Russian
Service kind : Complete Main
Default : Yes
Forced : Yes

Audio #2
ID : 3
Format : DTS
Format/Info : Digital Theater Systems
Codec ID : A_DTS
Duration : 2 h 26 min
Bit rate mode : Constant
Bit rate : 768 kb/s
Channel(s) : 6 channels
Channel layout : C L R Ls Rs LFE
Sampling rate : 48.0 kHz
Frame rate : 93.750 FPS (512 SPF)
Bit depth : 24 bits
Compression mode : Lossy
Stream size : 807 MiB (4%)
Title : MVO [Lostfilm]
Language : Russian
Default : No
Forced : No

Audio #3
ID : 4
Format : AC-3
Format/Info : Audio Coding 3
Commercial name : Dolby Digital
Codec ID : A_AC3
Duration : 2 h 26 min
Bit rate mode : Constant
Bit rate : 448 kb/s
Channel(s) : 6 channels
Channel layout : L R C LFE Ls Rs
Sampling rate : 48.0 kHz
Frame rate : 31.250 FPS (1536 SPF)
Compression mode : Lossy
Stream size : 471 MiB (3%)
Title : MVO [Lostfilm]
Language : Russian
Service kind : Complete Main
Default : No
Forced : No

Audio #4
ID : 5
Format : AC-3
Format/Info : Audio Coding 3
Commercial name : Dolby Digital
Codec ID : A_AC3
Duration : 2 h 26 min
Bit rate mode : Constant
Bit rate : 448 kb/s
Channel(s) : 6 channels
Channel layout : L R C LFE Ls Rs
Sampling rate : 48.0 kHz
Frame rate : 31.250 FPS (1536 SPF)
Compression mode : Lossy
Stream size : 471 MiB (3%)
Title : MVO [Jaskier]
Language : Russian
Service kind : Complete Main
Default : No
Forced : No

Audio #5
ID : 6
Format : AC-3
Format/Info : Audio Coding 3
Commercial name : Dolby Digital
Codec ID : A_AC3
Duration : 2 h 26 min
Bit rate mode : Constant
Bit rate : 448 kb/s
Channel(s) : 6 channels
Channel layout : L R C LFE Ls Rs
Sampling rate : 48.0 kHz
Frame rate : 31.250 FPS (1536 SPF)
Compression mode : Lossy
Stream size : 471 MiB (3%)
Title : MVO [NewComers]
Language : Russian
Service kind : Complete Main
Default : No
Forced : No

Audio #6
ID : 7
Format : AC-3
Format/Info : Audio Coding 3
Commercial name : Dolby Digital
Codec ID : A_AC3
Duration : 2 h 26 min
Bit rate mode : Constant
Bit rate : 640 kb/s
Channel(s) : 6 channels
Channel layout : L R C LFE Ls Rs
Sampling rate : 48.0 kHz
Frame rate : 31.250 FPS (1536 SPF)
Compression mode : Lossy
Stream size : 673 MiB (4%)
Title : Original
Language : English
Service kind : Complete Main
Default : No
Forced : No

Text #1
ID : 8
Format : UTF-8
Codec ID : S_TEXT/UTF8
Codec ID/Info : UTF-8 Plain Text
Duration : 1 h 41 min
Bit rate : 1 b/s
Frame rate : 0.002 FPS
Count of elements : 15
Stream size : 763 Bytes (0%)
Title : Forced
Language : Russian
Default : Yes
Forced : Yes

Text #2
ID : 9
Format : UTF-8
Codec ID : S_TEXT/UTF8
Codec ID/Info : UTF-8 Plain Text
Duration : 2 h 14 min
Bit rate : 70 b/s
Frame rate : 0.176 FPS
Count of elements : 1424
Stream size : 69.4 KiB (0%)
Title : Full [NewComers]
Language : Russian
Default : No
Forced : No

Text #3
ID : 10
Format : UTF-8
Codec ID : S_TEXT/UTF8
Codec ID/Info : UTF-8 Plain Text
Duration : 2 h 26 min
Bit rate : 45 b/s
Frame rate : 0.207 FPS
Count of elements : 1820
Stream size : 48.4 KiB (0%)
Title : Full
Language : English
Default : No
Forced : No

Text #4
ID : 11
Format : UTF-8
Codec ID : S_TEXT/UTF8
Codec ID/Info : UTF-8 Plain Text
Duration : 2 h 26 min
Bit rate : 55 b/s
Frame rate : 0.272 FPS
Count of elements : 2393
Stream size : 60.2 KiB (0%)
Title : SDH
Language : English
Default : No
Forced : No

Menu
00:00:00.000 : Chapter 01
00:07:57.560 : Chapter 02
00:11:36.362 : Chapter 03
00:25:30.070 : Chapter 04
00:35:48.271 : Chapter 05
00:42:56.282 : Chapter 06
00:47:53.788 : Chapter 07
00:54:45.407 : Chapter 08
01:04:51.054 : Chapter 09
01:14:49.026 : Chapter 10
01:25:28.373 : Chapter 11
01:30:44.355 : Chapter 12
01:38:17.975 : Chapter 13
01:44:28.345 : Chapter 14
01:48:09.483 : Chapter 15
02:04:34.425 : Chapter 16
02:08:56.896 : Chapter 17
02:14:12.961 : Chapter 18
02:23:16.921 : Chapter 19
02:29:59.032 : Chapter 20

pb.wtf



Скачать Мир Юрского периода: Господство через торрент https://i120.fastpic.org/big/2022/0801/c7/00fcf5da40d798645f7e6cd9acca7ac7.jpg Скачать, смотреть онлайн Мир Юрского периода: Господство бесплантно в хорошем качестве Описание: После уничтожения острова Нублар динозавры вырвались на свободу и заполнили планету. Людям удается поддерживать хрупкое ... 9.7 10 42
Торрент: Зарегистрирован [2022-08-01 09:45] · скачан: 173 раз
Статус: √ проверено
Размер: 17.64 GB
Как cкачать? Как скачать Мир Юрского периода: Господство через торрент | UTorrent

% Раздел Тема Автор DL S | L
Фильмы (Blu-ray, BD-Remux, HDDVD) [ 29.48 GB ] Мир Юрского периода: Господство / Jurassic World Dominion [2022 BD Remux 1080p] DUB [Jaskier] +3xMVO bober100 Скачать
10 | 0
Фильмы 2022 [DVDrip, WEB-DLRip, HDrip] (DUB, MVO) [ 4.86 GB ] Мир Юрского периода: Господство / Jurassic World Dominion [2022 HDRip-AVC] DUB [Jaskier] +3xMVO bober100 Скачать
9 | 0
Фильмы [HD 720p, 1080p] (Хороший звук DUB, MVO) [ 7.63 GB ] Мир Юрского периода: Господство / Jurassic World Dominion [2022 BDRip 720p] DUB [Jaskier] +3xMVO bober100 Скачать
11 | 0


Последний раз редактировалось: bober100 (2022-08-01 09:45), всего редактировалось 4 раз(а)

28-11-2019 20:33  

Отключить вcю реклaмy на сайте

01-08-2022 12:36 Мир Юрского периода: Господство Скачать торрент  

вот тут дубляж хорош Мир Юрского периода: Господство / Jurassic World Dominion , жаль не прикрепилиpb.wtf



    Дорогой пользователь! Огромная просьба, поблагодарите релизера, оцените раздачу и оставьте свои комментарий, если Вы скачали Мир Юрского периода: Господство через торрент бесплатно!
    Комментировать посты могут только пользователи прошедшие не сложную регистрацию
    Показать сообщения:    

    Мир Юрского периода: Господство через торрент
    Скачать бесплатно Мир Юрского периода: Господство
    Мир Юрского периода: Господство скачать торрент
    Мир Юрского периода: Господство смотреть онлайн
    Cкачать фильм Мир Юрского периода: Господство бесплатно
    Мир Юрского периода: Господство скачать торрент в хорошем качестве
    Мир Юрского периода: Господство смотреть онлайн бесплатно в хорошем качестве


    Вы не можете начинать темы
    Вы не можете отвечать на сообщения
    Вы не можете редактировать свои сообщения
    Вы не можете удалять свои сообщения
    Вы не можете голосовать в опросах
    Вы не можете прикреплять файлы к сообщениям
    Вы можете скачивать файлы