Достать ножи: Стеклянная луковица

MVO

Добыча

Дубляж

Уэнсдэй

1 сезон

Тор

Дубляж

13 клиническая

1 сезон

Жестокая ночь

MVO

Одни из нас

1 сезон

Deluxe

pack

Рекомендуем

30

Пиратка

ВАЖНО

ВАЖНО

Ghostwire

Пиратка

jed

RePack

nioh2

RePack

RDR2

RePack

NEED FOR SPEED™ PAYBACK

RePack

скачать торрент

Кинопоиск HD

Острые козырьки 6 сезон

6 сезон

FAR CRY 6

RePack

скачать торрент

Лицензия

скачать торрент

MVO

1

1 сезон

скачать торрент

1 сезон

скачать торрент

Лицензия

  

Мой волк / Mystère / Vicky and Her Mystery (Дени Имбер) [2021, Семейный, приключения, BDRip 720p] Дубляж [KION]

Мой волк через торрент pb.wtf

Размер: 4.13 GB | Добавлен: 6 мес. назад | Торрент скачан:53 раза
Смотреть онлайн | Скачать | Поддержите нас   

09-07-2022 06:09 Мой волк Скачать торрент  

Мой волк
Mystère | Vicky and Her Mystery

Год выпуска: 2021
Страна: Франция
Студия: Angoa-Agicoa, Auvergne Rhône-Alpes Cinéma, Centre National de la Cinématographie (CNC), Ciné, Conseil Départemental Du Cantal, Entourage Pictures, Gaumont, OCS, Région Auvergne-Rhône-Alpes, Radar Films, Solar Entertainment
Жанр: Семейный, приключения
Продолжительность: 01:23:11
Перевод: Дублированный | KION
Субтитры: Английские

Режиссер: Дени Имбер

rating

В ролях: Чеки Карио, Мари Жиллен, Венсан Эльбаз, Эрик Элмоснино, Шанна Кейль, Эрик Савен, Ромен Ланкри, Венсан Деньяр, Эцио Саттер, Моник Барбарат

Описание: Стефан решает отправиться в прекрасные горы Канталь вместе со своей 8-летней дочерью Викторией, надеясь, что это поможет девочке оправиться после исчезновения ее матери — с тех пор она не промолвила ни слова. Однажды во время прогулки Виктория знакомится с пастушьим щенком по кличке Секрет, который постепенно возвращает девочке смех и радость. Но вскоре становится ясно, что Секрет — не просто безобидная собака, а самый настоящий волк.

Качество: BDRip 720p
Формат: MKV

Видео: MPEG-4 AVC, 1920x804, 12.0 Mbit/s, 24.000 fps
Аудио #01: 48 kHz, AC3, 5.1, 640 Kbps | Дублированный | KION | RUS |
Аудио #02: 48 kHz, AC3, 5.1, 640 Kbps | Оригинал | FRE |
скриншот  скриншот  скриншот  скриншот  скриншот  скриншот  

General
Unique ID : 219631461407497630492731461475188885900 (0xA53B7B175FFA8C3D4C2813E34E74498C)
Complete name : D:\Video1\Vicky.and.Her.Mystery.2021.BDRip.720p.seleZen.mkv
Format : Matroska
Format version : Version 4
File size : 4.13 GiB
Duration : 1 h 23 min
Overall bit rate : 7 112 kb/s
Movie name : Mystère a.k.a Vicky and Her Mystery 2021 from seleZen
Encoded date : UTC 2022-07-09 05:49:11
Writing application : mkvmerge v59.0.0 ('Shining Star') 64-bit
Writing library : libebml v1.4.2 + libmatroska v1.6.4

Video
ID : 1
Format : AVC
Format/Info : Advanced Video Codec
Format profile : [email protected]
Format settings : CABAC / 12 Ref Frames
Format settings, CABAC : Yes
Format settings, Reference : 12 frames
Codec ID : V_MPEG4/ISO/AVC
Duration : 1 h 23 min
Bit rate : 5 879 kb/s
Width : 1 280 pixels
Height : 536 pixels
Display aspect ratio : 2.40:1
Frame rate mode : Constant
Frame rate : 24.000 FPS
Color space : YUV
Chroma subsampling : 4:2:0
Bit depth : 8 bits
Scan type : Progressive
Bits/(Pixel*Frame) : 0.357
Stream size : 3.39 GiB (82%)
Writing library : x264 core 164 r3085+55M seleZen t_mod_New [(8 & 10)[email protected] X86_64]
Encoding settings : cabac=1 / ref=12 / deblock=1:-2:-2 / analyse=0x3:0x133 / me=umh / subme=11 / psy=1 / fade_compensate=0.00 / psy_rd=1.02:0.03 / mixed_ref=1 / me_range=32 / chroma_me=1 / trellis=2 / 8x8dct=1 / cqm=0 / deadzone=21,11 / fast_pskip=0 / chroma_qp_offset=-3 / threads=17 / lookahead_threads=2 / sliced_threads=0 / nr=0 / decimate=0 / interlaced=0 / bluray_compat=0 / constrained_intra=0 / fgo=0 / bframes=9 / b_pyramid=2 / b_adapt=2 / b_bias=0 / direct=3 / weightb=1 / open_gop=0 / weightp=2 / keyint=240 / keyint_min=23 / scenecut=40 / intra_refresh=0 / rc_lookahead=60 / rc=2pass / mbtree=0 / bitrate=5879 / ratetol=1.0 / qcomp=0.60 / qpmin=0:0:0 / qpmax=51:51:51 / qpstep=4 / cplxblur=20.0 / qblur=0.5 / vbv_maxrate=50000 / vbv_bufsize=62500 / nal_hrd=none / filler=0 / ip_ratio=1.40 / pb_ratio=1.30 / aq=3:0.80 / aq-sensitivity=10.00 / aq-factor=1.00:1.00:1.00 / aq2=0 / aq3=0
Language : English
Default : Yes
Forced : No

Audio #1
ID : 2
Format : AC-3
Format/Info : Audio Coding 3
Commercial name : Dolby Digital
Codec ID : A_AC3
Duration : 1 h 23 min
Bit rate mode : Constant
Bit rate : 640 kb/s
Channel(s) : 6 channels
Channel layout : L R C LFE Ls Rs
Sampling rate : 48.0 kHz
Frame rate : 31.250 FPS (1536 SPF)
Compression mode : Lossy
Stream size : 381 MiB (9%)
Title : Дубляж
Language : Russian
Service kind : Complete Main
Default : Yes
Forced : Yes

Audio #2
ID : 3
Format : AC-3
Format/Info : Audio Coding 3
Commercial name : Dolby Digital
Codec ID : A_AC3
Duration : 1 h 23 min
Bit rate mode : Constant
Bit rate : 640 kb/s
Channel(s) : 6 channels
Channel layout : L R C LFE Ls Rs
Sampling rate : 48.0 kHz
Frame rate : 31.250 FPS (1536 SPF)
Compression mode : Lossy
Stream size : 381 MiB (9%)
Title : Original
Language : French
Service kind : Complete Main
Default : No
Forced : No

Text
ID : 4
Format : UTF-8
Codec ID : S_TEXT/UTF8
Codec ID/Info : UTF-8 Plain Text
Duration : 1 h 15 min
Bit rate : 51 b/s
Frame rate : 0.205 FPS
Count of elements : 931
Stream size : 28.7 KiB (0%)
Title : Full
Language : English
Default : No
Forced : No

Menu
00:00:00.000 : Глава 01
00:10:02.417 : Глава 02
00:20:03.833 : Глава 03
00:29:19.000 : Глава 04
00:37:58.500 : Глава 05
00:47:22.250 : Глава 06
00:57:12.167 : Глава 07
01:07:34.750 : Глава 08
01:16:43.708 : Глава 09




Скачать Мой волк через торрент https://i120.fastpic.org/big/2022/0709/a1/8b5a675432612f592bf5b5cf12b5e3a1.jpg Скачать, смотреть онлайн Мой волк бесплантно в хорошем качестве Описание: Стефан решает отправиться в прекрасные горы Канталь вместе со своей 8-летней дочерью Викторией, надеясь, что это поможет девочке ... 10 10 5
Торрент: Зарегистрирован [2022-07-09 06:09] · скачан: 53 раз
Статус: √ проверено
Размер: 4.13 GB
Как cкачать? Как скачать Мой волк через торрент | UTorrent

% Раздел Тема Автор DL S | L
Фильмы 2021 [DVDrip, WEB-DLRip, HDrip] (DUB, MVO) [ 1.91 GB ] Мой волк / Mystère / Vicky and Her Mystery | DUB | BDRip-AVC Lithuania Скачать
1 | 0
Фильмы 2021 [DVDrip, WEB-DLRip, HDrip] (DUB, MVO) [ 746 MB ] Мой волк / Mystère / Vicky and Her Mystery | DUB | BDRip bober100 Скачать
1 | 0
Фильмы (Blu-ray, BD-Remux, HDDVD) [ 23.24 GB ] Мой волк / Mystère / Vicky and Her Mystery | DUB | BD Remux 1080p bober100 Скачать
1 | 0
Фильмы [HD 720p, 1080p] (Хороший звук DUB, MVO) [ 7.71 GB ] Мой волк / Mystère / Vicky and Her Mystery | DUB | 1080p bober100 Скачать
1 | 0
Фильмы 2021 [DVDrip, WEB-DLRip, HDrip] (DUB, MVO) [ 1.34 GB ] Мой волк / Mystère / Vicky and Her Mystery | iTunes | DLRip-AVC bober100 Скачать
1 | 0
Фильмы (WEB-DL 720p, 1080p) [ 3.09 GB ] Мой волк / Mystère / Vicky and Her Mystery | iTunes | 1080p bober100 Скачать
1 | 0
Фильмы 2021 [DVDrip, WEB-DLRip, HDrip] (DUB, MVO) [ 1.46 GB ] Мой волк / Mystère / Vicky and Her Mystery | DUB | BDRip bober100 Скачать
1 | 0

28-11-2019 20:33  


Отключить вcю реклaмy на сайте, в т.ч. и в плеере онлайн просмотра!

09-07-2022 08:53 Мой волк Скачать торрент  

детям понравится



    Дорогой пользователь! Огромная просьба, поблагодарите релизера, оцените раздачу и оставьте свои комментарий, если Вы скачали Мой волк через торрент бесплатно!!
    Комментировать посты могут только пользователи прошедшие не сложную регистрацию
    Показать сообщения:    


    Мой волк через торрент
    Скачать бесплатно Мой волк
    Мой волк скачать торрент
    Мой волк смотреть онлайн
    Cкачать фильм Мой волк бесплатно
    Мой волк скачать торрент в хорошем качестве
    Мой волк смотреть онлайн бесплатно в хорошем качестве
    Вы не можете начинать темы
    Вы не можете отвечать на сообщения
    Вы не можете редактировать свои сообщения
    Вы не можете удалять свои сообщения
    Вы не можете голосовать в опросах
    Вы не можете прикреплять файлы к сообщениям
    Вы можете скачивать файлы
    Мой волк / Mystère / Vicky and Her Mystery [2021, Семейный, приключения, BDRip 720p] Дубляж [KION] смотреть онлайн, скачать торрент picoco.icu