Всегда рабочее зеркало без VPN и Proxy просто перед .vidak.icu напиши любое слово или цифру, Пример http://3bp3.vidak.icu

Лицензия

MVO

1 сезон

1

1 сезон

iTunes

1 сезон

13

1 сезон

Deluxe

pack

Рекомендуем

Repack

30

ВАЖНО

RePack

MK11

RePack

jed

RePack

fifa19

RePack

RDR2

RePack

NEED FOR SPEED™ PAYBACK

Кинопоиск HD

6 сезон

 Острые козырьки 6 сезон

Все сериалы

все сериалы на PB.wtf

RePack

FAR CRY 5
  
Magnet ссылка

Мир Юрского периода: Господство / Jurassic World Dominion (Колин Треворроу) [2022, фантастика, боевик, триллер, приключения, BDRip-AVC] DUB, MVO [Lostfilm, NewComers, Jaskier] от ExKinoRay pb.wtf

Мир Юрского периода: Господство через торрент pb.wtf

Раздают: 4 [ 24 KB/s ]
Размер: 4.71 GB | Добавлен: 12 д. назад | Торрент скачан:61 раз
Смотреть онлайн Мир Юрского периода: Господство | Скачать    Ребята, помогите собрать деньги на оплату серверов!!!

09-07-2022 06:30 Мир Юрского периода: Господство Скачать торрент  


Мир Юрского периода: Господство / Jurassic World Dominion
Информация о фильме:
Название: Мир Юрского периода: Господство
Оригинальное название: Jurassic World Dominion
Год выхода: 2022
Жанр: Фантастика, боевик, триллер, приключения
Режиссер: Колин Треворроу
В ролях: Крис Прэтт, Брайс Даллас Ховард, Лора Дерн, Сэм Нилл, Джефф Голдблюм, ДеВанда Уайз, Мамуду Ати, Изабелла Сермон, Кэмпбелл Скотт, Б. Д. Вонг

Описание: После уничтожения острова Нублар динозавры вырвались на свободу и заполнили планету. Людям удается поддерживать хрупкое равновесие, определяющее мирное сосуществование на Земле. Но как долго человек сможет сохранять свое господство, живя по соседству с самыми устрашающими существами в истории?



Страна: США, Китай, Мальта
Студия: Amblin Entertainment, Latina Pictures, Perfect World (Beijing) Pictures Co., Universal Pictures
Продолжительность: 02:26:57
Перевод: Дублированный - Jaskier , Профессиональный (многоголосый, закадровый) - Lostfilm, Jaskier, NewComers



Информация о файле:
Кодек: AVC
Формат: MKV
Качество: BDRip-AVC | Jurassic.World.Dominion.2022.BDREMUX.1080p.seleZen
Видео: MPEG-4 AVC, 1024x512, 23.976 fps, 2350 kbps
Аудио RU: AC3, 6 ch, 48 kHz, 448 kbps | Jaskier | DUB
Аудио RU: AC3, 6 ch, 48 kHz, 448 kbps | Lostfilm
Аудио RU: AC3, 6 ch, 48 kHz, 448 kbps | Jaskier | MVO
Аудио RU: AC3, 6 ch, 48 kHz, 448 kbps | NewComers
Аудио EN: AC3, 6 ch, 48 kHz, 448 kbps | ENG
Субтитры: Русские (Forced, full), английские



[x264] frame I:1810 Avg QP:17.45 size: 75469
[x264] frame P:50868 Avg QP:19.99 size: 23349
[x264] frame B:158726 Avg QP:21.59 size: 7972
General
Unique ID : 26944361628586705812532193604204693222 (0x14454B981430A54AB8FAD4345C2B06E6)
Complete name : D:uTorrentРипы wolf1245Jurassic World Dominion.2022.DUB.MVO.X264.BDRip-AVC.[wolf1245.ExKinoRay].mkv
Format : Matroska
Format version : Version 4
File size : 4.71 GiB
Duration : 2 h 26 min
Overall bit rate : 4 593 kb/s
Movie name : Jurassic World Dominion.2022.DUB.MVO.X264.BDRip-AVC.[wolf1245.ExKinoRay]
Encoded date : UTC 2022-08-04 17:35:11
Writing application : mkvmerge v69.0.0 ('Day And Age') 64-bit
Writing library : libebml v1.4.2 + libmatroska v1.6.4
Video
ID : 1
Format : AVC
Format/Info : Advanced Video Codec
Format profile : [email protected]
Format settings : CABAC / 12 Ref Frames
Format settings, CABAC : Yes
Format settings, Reference frames : 12 frames
Codec ID : V_MPEG4/ISO/AVC
Duration : 2 h 26 min
Bit rate : 2 350 kb/s
Width : 1 024 pixels
Height : 512 pixels
Display aspect ratio : 2.000
Frame rate mode : Constant
Frame rate : 23.976 (24000/1001) FPS
Color space : YUV
Chroma subsampling : 4:2:0
Bit depth : 8 bits
Scan type : Progressive
Bits/(Pixel*Frame) : 0.187
Stream size : 2.41 GiB (51%)
Title : -=[wolf1245.ExKinoRay]=-
Writing library : x264 core 163
Encoding settings : cabac=1 / ref=12 / deblock=1:-1:-1 / analyse=0x3:0x133 / me=umh / subme=11 / psy=1 / psy_rd=1.02:0.15 / mixed_ref=1 / me_range=32 / chroma_me=1 / trellis=2 / 8x8dct=1 / cqm=0 / deadzone=21,11 / fast_pskip=1 / chroma_qp_offset=-3 / threads=10 / lookahead_threads=2 / sliced_threads=0 / nr=0 / decimate=0 / interlaced=0 / bluray_compat=0 / constrained_intra=0 / bframes=12 / b_pyramid=2 / b_adapt=2 / b_bias=0 / direct=3 / weightb=1 / open_gop=0 / weightp=2 / keyint=240 / keyint_min=24 / scenecut=40 / intra_refresh=0 / rc_lookahead=150 / rc=2pass / mbtree=0 / bitrate=2350 / ratetol=1.0 / qcomp=0.75 / qpmin=0 / qpmax=69 / qpstep=4 / cplxblur=20.0 / qblur=0.5 / vbv_maxrate=50000 / vbv_bufsize=62500 / nal_hrd=none / filler=0 / ip_ratio=1.35 / pb_ratio=1.25 / aq=1:1.00
Language : English
Default : Yes
Forced : No
Audio #1
ID : 2
Format : AC-3
Format/Info : Audio Coding 3
Commercial name : Dolby Digital
Codec ID : A_AC3
Duration : 2 h 26 min
Bit rate mode : Constant
Bit rate : 448 kb/s
Channel(s) : 6 channels
Channel layout : L R C LFE Ls Rs
Sampling rate : 48.0 kHz
Frame rate : 31.250 FPS (1536 SPF)
Compression mode : Lossy
Stream size : 471 MiB (10%)
Title : DUB | Jaskier | RUS
Language : Russian
Service kind : Complete Main
Default : Yes
Forced : Yes
Audio #2
ID : 3
Format : AC-3
Format/Info : Audio Coding 3
Commercial name : Dolby Digital
Codec ID : A_AC3
Duration : 2 h 26 min
Bit rate mode : Constant
Bit rate : 448 kb/s
Channel(s) : 6 channels
Channel layout : L R C LFE Ls Rs
Sampling rate : 48.0 kHz
Frame rate : 31.250 FPS (1536 SPF)
Compression mode : Lossy
Stream size : 471 MiB (10%)
Title : MVO | Lostfilm | RUS
Language : Russian
Service kind : Complete Main
Default : No
Forced : No
Audio #3
ID : 4
Format : AC-3
Format/Info : Audio Coding 3
Commercial name : Dolby Digital
Codec ID : A_AC3
Duration : 2 h 26 min
Bit rate mode : Constant
Bit rate : 448 kb/s
Channel(s) : 6 channels
Channel layout : L R C LFE Ls Rs
Sampling rate : 48.0 kHz
Frame rate : 31.250 FPS (1536 SPF)
Compression mode : Lossy
Stream size : 471 MiB (10%)
Title : MVO | Jaskier | RUS
Language : Russian
Service kind : Complete Main
Default : No
Forced : No
Audio #4
ID : 5
Format : AC-3
Format/Info : Audio Coding 3
Commercial name : Dolby Digital
Codec ID : A_AC3
Duration : 2 h 26 min
Bit rate mode : Constant
Bit rate : 448 kb/s
Channel(s) : 6 channels
Channel layout : L R C LFE Ls Rs
Sampling rate : 48.0 kHz
Frame rate : 31.250 FPS (1536 SPF)
Compression mode : Lossy
Stream size : 471 MiB (10%)
Title : MVO | NewComers | RUS
Language : Russian
Service kind : Complete Main
Default : No
Forced : No
Audio #5
ID : 6
Format : AC-3
Format/Info : Audio Coding 3
Commercial name : Dolby Digital
Codec ID : A_AC3
Duration : 2 h 26 min
Bit rate mode : Constant
Bit rate : 448 kb/s
Channel(s) : 6 channels
Channel layout : L R C LFE Ls Rs
Sampling rate : 48.0 kHz
Frame rate : 31.250 FPS (1536 SPF)
Compression mode : Lossy
Stream size : 471 MiB (10%)
Title : Original | ENG
Language : English
Service kind : Complete Main
Default : No
Forced : No
Text #1
ID : 7
Format : UTF-8
Codec ID : S_TEXT/UTF8
Codec ID/Info : UTF-8 Plain Text
Duration : 1 h 41 min
Bit rate : 1 b/s
Count of elements : 15
Stream size : 763 Bytes (0%)
Title : Forced
Language : Russian
Default : Yes
Forced : Yes
Text #2
ID : 8
Format : UTF-8
Codec ID : S_TEXT/UTF8
Codec ID/Info : UTF-8 Plain Text
Duration : 2 h 14 min
Bit rate : 70 b/s
Count of elements : 1424
Stream size : 69.4 KiB (0%)
Title : Full [NewComers]
Language : Russian
Default : No
Forced : No
Text #3
ID : 9
Format : UTF-8
Codec ID : S_TEXT/UTF8
Codec ID/Info : UTF-8 Plain Text
Duration : 2 h 26 min
Bit rate : 45 b/s
Count of elements : 1820
Stream size : 48.4 KiB (0%)
Title : Full
Language : English
Default : No
Forced : No
Text #4
ID : 10
Format : UTF-8
Codec ID : S_TEXT/UTF8
Codec ID/Info : UTF-8 Plain Text
Duration : 2 h 26 min
Bit rate : 55 b/s
Count of elements : 2393
Stream size : 60.2 KiB (0%)
Title : SDH
Language : English
Default : No
Forced : No
Menu
00:00:00.000 : :Chapter 01
00:07:57.560 : :Chapter 02
00:11:36.362 : :Chapter 03
00:25:30.070 : :Chapter 04
00:35:48.271 : :Chapter 05
00:42:56.282 : :Chapter 06
00:47:53.788 : :Chapter 07
00:54:45.407 : :Chapter 08
01:04:51.054 : :Chapter 09
01:14:49.026 : :Chapter 10
01:25:28.373 : :Chapter 11
01:30:44.355 : :Chapter 12
01:38:17.975 : :Chapter 13
01:44:28.345 : :Chapter 14
01:48:09.483 : :Chapter 15
02:04:34.425 : :Chapter 16
02:08:56.896 : :Chapter 17
02:14:12.961 : :Chapter 18
02:23:16.921 : :Chapter 19
02:29:59.032 : :Chapter 20
Релиз от:
Автор релиза:
pb.wtf



Скачать Мир Юрского периода: Господство через торрент http://i120.fastpic.org/big/2022/0709/85/7eb5075365e72ce28ef918573f92b885.jpg Скачать, смотреть онлайн Мир Юрского периода: Господство бесплантно в хорошем качестве Описание: После уничтожения острова Нублар динозавры вырвались на свободу и заполнили планету. Людям удается поддерживать хрупкое ... 9.5 10 13
Торрент: Зарегистрирован [2022-08-04 17:50] · скачан: 61 раз
Статус: √ проверено
Размер: 4.71 GB
Как cкачать? Как скачать Мир Юрского периода: Господство через торрент | UTorrent

28-11-2019 20:33  

Отключить вcю реклaмy на сайте

    Дорогой пользователь! Огромная просьба, поблагодарите релизера, оцените раздачу и оставьте свои комментарий, если Вы скачали Мир Юрского периода: Господство через торрент бесплатно!
    Комментировать посты могут только пользователи прошедшие не сложную регистрацию
    Показать сообщения:    

    Мир Юрского периода: Господство через торрент
    Скачать бесплатно Мир Юрского периода: Господство
    Мир Юрского периода: Господство скачать торрент
    Мир Юрского периода: Господство смотреть онлайн
    Cкачать фильм Мир Юрского периода: Господство бесплатно
    Мир Юрского периода: Господство скачать торрент в хорошем качестве
    Мир Юрского периода: Господство смотреть онлайн бесплатно в хорошем качестве


    Вы можете начинать темы
    Вы можете отвечать на сообщения
    Вы не можете редактировать свои сообщения
    Вы не можете удалять свои сообщения
    Вы не можете голосовать в опросах
    Вы не можете прикреплять файлы к сообщениям
    Вы можете скачивать файлы