Достать ножи: Стеклянная луковица

MVO

Добыча

Дубляж

Уэнсдэй

1 сезон

Тор

Дубляж

13 клиническая

1 сезон

Жестокая ночь

MVO

Одни из нас

1 сезон

Deluxe

pack

Рекомендуем

30

Пиратка

ВАЖНО

ВАЖНО

Ghostwire

Пиратка

jed

RePack

nioh2

RePack

RDR2

RePack

NEED FOR SPEED™ PAYBACK

RePack

скачать торрент

Кинопоиск HD

Острые козырьки 6 сезон

6 сезон

FAR CRY 6

RePack

скачать торрент

Лицензия

скачать торрент

MVO

1

1 сезон

скачать торрент

1 сезон

скачать торрент

Лицензия

  

Варяг / The Northman (Роберт Эггерс) [2022, Фэнтези, боевик, триллер, драма, приключения, история, BDRip - HEVC 1080p 10 bit 60 FPS, Дубляж]

Варяг через торрент pb.wtf

Размер: 3.56 GB | Добавлен: 6 мес. назад | Торрент скачан:150 раз
Смотреть онлайн | Скачать | Поддержите нас   

09-07-2022 08:07 Варяг Скачать торрент  

The Northman
«Завоюй свою судьбу»
Информация Описание:
Название: Варяг
Оригинальное название: The Northman
Год выхода: 2022
Жанр: Фэнтези, боевик, триллер, драма, приключения, история
Режиссер: Роберт Эггерс
В ролях: Александр Скарсгард, Николь Кидман, Клас Банг, Итэн Хоук, Аня Тейлор-Джой, Густав Линд, Эллиотт Роуз, Уиллем Дефо, Фил Мартин, Эльдар Скар
Описание: Конец IX века, небольшой остров в Северной Атлантике. Король Орвандилл с серьёзным ранением возвращается из похода к жене Гудрун и юному сыну Амлету. Мечтая отправиться на очередное сражение и умереть на поле боя, он передаёт трон сыну, но тут же погибает от руки брата Фьолнира — тот отрубает монарху голову и забирает королевство и Гудрун себе. Мальчику удаётся сбежать.

Спустя десятилетия Амлет вырастает в крепкого безжалостного викинга и однажды в очередной разорённой деревне встречает ведьму, которая наставляет его на пусть мести. Узнав, что Фьолнир с Гудрун поселились в Исландии, Амлет отправляется туда с партией славянских рабов. На борту его внимание привлекает Ольга из Березового леса.


Страна: США
Студия: New Regency Productions, Focus Features, Perfect World Pictures
Продолжительность: 02:16:53
Перевод: Дублированный | Пифагор
Субтитры: русские
Навигация по главам: есть
Информация о файле:
Качество: BDRip - HEVC 1080p Rip by DD2D3
Формат: MKV
Видео: V_MPEGH/ISO/HEVC; 1920x960 (2.000); 3262 Kbps; 60 fps; 0,029 bpp
Аудио: русский; AC3; 384 Kbps; CBR; 6 ch ||
Доп. информация: нет

Общее
Уникальный идентификатор : 177494405711437775600015126721926759288 (0x85882DD8FAA2B68EA3EA0A811CCF8378)
Полное имя : E:\The Northman (2022) BDRip - HEVC 1080p 10 bit 60 FPS.mkv
Формат : Matroska
Версия формата : Version 2
Размер файла : 3,56 Гбайт
Продолжительность : 2 ч. 16 м.
Общий поток : 3 720 Кбит/сек
Название фильма : Rip by from DD2D3
Дата кодирования : UTC 2022-07-09 07:28:50
Программа кодирования : mkvmerge v6.9.1 ('Blue Panther') 32bit built on Apr 18 2014 18:15:44
Библиотека кодирования : libebml v1.3.0 + libmatroska v1.4.1
Attachments : poster

Видео
Идентификатор : 1
Формат : HEVC
Формат/Информация : High Efficiency Video Coding
Профиль формата : Main [email protected]@Main
Идентификатор кодека : V_MPEGH/ISO/HEVC
Продолжительность : 2 ч. 16 м.
Битрейт : 3 262 Кбит/сек
Ширина : 1 920 пикселей
Высота : 960 пикселей
Соотношение сторон : 2,000
Режим частоты кадров : Постоянный
Частота кадров : 60,000 кадров/сек
Цветовое пространство : YUV
Субдискретизация насыщенности : 4:2:0
Битовая глубина : 10 бит
Бит/(Пиксели*Кадры) : 0.029
Размер потока : 3,12 Гбайт (88%)
Default : Да
Forced : Нет
Цветовой диапазон : Limited
Основные цвета : BT.709
Характеристики трансфера : BT.709
Коэффициенты матрицы : BT.709

Аудио
Идентификатор : 2
Формат : AC-3
Формат/Информация : Audio Coding 3
Коммерческое название : Dolby Digital
Идентификатор кодека : A_AC3
Продолжительность : 2 ч. 16 м.
Вид битрейта : Постоянный
Битрейт : 384 Кбит/сек
Каналы : 6 каналов
Channel layout : L R C LFE Ls Rs
Частота : 48,0 КГц
Частота кадров : 31,250 кадров/сек (1536 SPF)
Метод сжатия : С потерями
Размер потока : 376 Мбайт (10%)
Заголовок : Дублированный | Пифагор
Язык : Russian
Service kind : Complete Main
Default : Да
Forced : Да
Statistics Tags Issue : mkvmerge v59.0.0 ('Shining Star') 64-bit 2022-07-07 03:00:33 / mkvmerge v6.9.1 ('Blue Panther') 32bit built on Apr 18 2014 18:15:44 2022-07-09 07:28:50
FromStats_BitRate : 384000
FromStats_Duration : 02:16:52.512000000
FromStats_FrameCount : 256641
FromStats_StreamSize : 394200576

Текст
Идентификатор : 3
Формат : UTF-8
Идентификатор кодека : S_TEXT/UTF8
Идентификатор кодека/Информация : UTF-8 Plain Text
Заголовок : Full [Cool Story Blog]
Язык : Russian
Default : Нет
Forced : Нет
Statistics Tags Issue : mkvmerge v59.0.0 ('Shining Star') 64-bit 2022-07-07 03:00:33 / mkvmerge v6.9.1 ('Blue Panther') 32bit built on Apr 18 2014 18:15:44 2022-07-09 07:28:50
FromStats_BitRate : 52
FromStats_Duration : 02:08:31.668000000
FromStats_FrameCount : 1019
FromStats_StreamSize : 50394

Меню
00:00:00.000 : en:Chapter 01
00:08:53.992 : en:Chapter 02
00:15:47.613 : en:Chapter 03
00:22:04.615 : en:Chapter 04
00:30:23.697 : en:Chapter 05
00:39:44.340 : en:Chapter 06
00:46:18.401 : en:Chapter 07
00:51:43.267 : en:Chapter 08
00:58:14.032 : en:Chapter 09
01:05:22.335 : en:Chapter 10
01:11:55.019 : en:Chapter 11
01:16:49.563 : en:Chapter 12
01:23:36.094 : en:Chapter 13
01:27:16.690 : en:Chapter 14
01:35:42.862 : en:Chapter 15
01:41:02.390 : en:Chapter 16
01:46:38.225 : en:Chapter 17
01:55:44.855 : en:Chapter 18
02:01:06.968 : en:Chapter 19
02:08:41.255 : en:Chapter 20




Скачать Варяг через торрент https://st-kp-yandex-net.translate.goog/images/film_iphone/iphone360_1313198.jpg Скачать, смотреть онлайн Варяг бесплантно в хорошем качестве Описание:Название: ВарягОригинальное название: The NorthmanГод выхода: 2022Жанр: Фэнтези, боевик, триллер, драма, приключения, ... 7.8 10 8
Торрент: Зарегистрирован [2022-07-09 08:07] · скачан: 150 раз
Статус: √ проверено
Размер: 3.56 GB
Как cкачать? Как скачать Варяг через торрент | UTorrent

% Раздел Тема Автор DL S | L
Фильмы 2022-2023 [DVDrip, WEB-DLRip, HDrip] (DUB, MVO) [ 2.19 GB ] Варяг / The Northman | Пифагор | BDRip-AVC bober100 Скачать
4 | 0
Фильмы [HD 720p, 1080p] (Хороший звук DUB, MVO) [ 13.02 GB ] Варяг / The Northman | Пифагор | 1080p bober100 Скачать
3 | 0
Фильмы 2022-2023 [DVDrip, WEB-DLRip, HDrip] (DUB, MVO) [ 3.19 GB ] Варяг / The Northman | Пифагор | BDRip-AVC Lithuania Скачать
2 | 0
Фильмы [HD 720p, 1080p] (Хороший звук DUB, MVO) [ 7.1 GB ] Варяг / The Northman | Пифагор | 720p bober100 Скачать
2 | 0
Ultra HD (UHD: 2K, 4K, 8K) [ 58.99 GB ] Варяг / The Northman | Пифагор | 2160p, (Dolby Vision Profile 8 bober100 Скачать
3 | 0
Фильмы 2022-2023 [DVDrip, WEB-DLRip, HDrip] (DUB, MVO) [ 2.12 GB ] Варяг / The Northman | Пифагор | BDRip bober100 Скачать
1 | 0
Фильмы (Blu-ray, BD-Remux, HDDVD) [ 31.65 GB ] Варяг / The Northman | Пифагор | BD Remux 1080p bober100 Скачать
2 | 0

28-11-2019 20:33  


Отключить вcю реклaмy на сайте, в т.ч. и в плеере онлайн просмотра!

    Дорогой пользователь! Огромная просьба, поблагодарите релизера, оцените раздачу и оставьте свои комментарий, если Вы скачали Варяг через торрент бесплатно!!
    Комментировать посты могут только пользователи прошедшие не сложную регистрацию
    Показать сообщения:    


    Варяг через торрент
    Скачать бесплатно Варяг
    Варяг скачать торрент
    Варяг смотреть онлайн
    Cкачать фильм Варяг бесплатно
    Варяг скачать торрент в хорошем качестве
    Варяг смотреть онлайн бесплатно в хорошем качестве
    Вы не можете начинать темы
    Вы не можете отвечать на сообщения
    Вы не можете редактировать свои сообщения
    Вы не можете удалять свои сообщения
    Вы не можете голосовать в опросах
    Вы не можете прикреплять файлы к сообщениям
    Вы можете скачивать файлы
    Варяг / The Northman [2022, Фэнтези, боевик, триллер, драма, приключения, история, BDRip - HEVC 1080p 10 bit 60 FPS, Дубляж] смотреть онлайн, скачать торрент picoco.icu