Всегда рабочее зеркало без VPN и Proxy просто перед .vidak.icu напиши любое слово или цифру, Пример http://b49k.vidak.icu

MVO

MVO

1 сезон

1

1 сезон

iTunes

1 сезон

13

1 сезон

Deluxe

pack

Рекомендуем

Repack

30

ВАЖНО

RePack

MK11

RePack

jed

RePack

fifa19

RePack

RDR2

RePack

NEED FOR SPEED™ PAYBACK

Кинопоиск HD

6 сезон

 Острые козырьки 6 сезон

Все сериалы

все сериалы на PB.wtf

RePack

FAR CRY 5
  
Magnet ссылка

Резня на кладбище / Burial Ground Massacre / Jungle Room (Дэвид Гир) [2021, Ужасы, WEB-DLRip-AVC] MVO [Кипарис] pb.wtf

Резня на кладбище через торрент pb.wtf

Размер: 1.87 GB | Добавлен: 1 мес. 1 д. назад | Торрент скачан:27 раз
Смотреть онлайн Резня на кладбище | Скачать    Ребята, помогите собрать деньги на оплату серверов!!!

09-07-2022 13:59 Резня на кладбище Скачать торрент  

Резня на кладбище
Burial Ground Massacre / Jungle Room

Год выпуска: 2021
Страна: США
Студия: Hyperborea Films, LaSalle Productions, Shadow Vale Productions, Verdi Productions
Жанр: Ужасы
Продолжительность: 01:40:06
Перевод: Профессиональный (многоголосый) | Кипарис
Субтитры: Английские

Режиссер: Дэвид Гир

rating

В ролях: Майкл Мэдсен, Челси Вейл, Винни Марселья, Крис Уиткомб, Блейз Серра, Трэвис Гордон, Кара Кернэйн Джозеф, Кристофер Си Ромеро, Эй Джей Бернардо, Сара Элизабет Дженсен, Дэвид Гир, Майкл Макчини, Филипп Эндрю Страгалис, Джеймс Чиллицца, Ральф Пизелли

Описание: Группа студентов решает провести ночь в заброшенном поместье, построенном на священном индейском кладбище. Они еще не знают, что за ними уже наблюдает психопат, который охотится за артефактом, способным пробудить древних духов.

Качество: WEB-DLRip-AVC
Формат: MKV

Видео: MPEG-4 AVC, 1024x576 at 23.976 fps, [email protected], ~1836 kbps
Аудио#1: 48 kHz, AC3 Dolby Digital, 3/2 (L, C, R, l, r) + LFE ch, ~384 Kbps
Аудио#2: 48 kHz, AC3 Dolby Digital, 3/2 (L, C, R, l, r) + LFE ch, ~448 Kbps
скриншот  скриншот  скриншот  скриншот  скриншот  

x264 [info]: frame I:1050 Avg QP:16.94 size: 52235
x264 [info]: frame P:32166 Avg QP:17.49 size: 19586
x264 [info]: frame B:110774 Avg QP:19.57 size: 6259

General
Unique ID : 25902941332905058625755673348123174550 (0×137CB99BF6D58BA923BCB33C6D80A696)
Complete name : K:Burial.Ground.Massacre.2021.WEB-DLRip.x264.seleZen.mkv
Format : Matroska
Format version : Version 4
File size : 1.87 GiB
Duration : 1 h 40 min
Overall bit rate : 2 670 kb/s
Movie name : Burial.Ground.Massacre.2021.WEB-DLRip.x264.seleZen
Encoded date : UTC 09.07.2022 13:16:13
Writing application : mkvmerge v63.0.0 ('Everything') 64-bit
Writing library : libebml v1.4.2 + libmatroska v1.6.4
Cover : Yes
Attachments : cover.jpg / small_cover.jpg

Video
ID : 1
Format : AVC
Format/Info : Advanced Video Codec
Format profile : [email protected]
Format settings : CABAC / 12 Ref Frames
Format settings, CABAC : Yes
Format settings, Reference : 12 frames
Codec ID : V_MPEG4/ISO/AVC
Duration : 1 h 40 min
Bit rate : 1 836 kb/s
Width : 1 024 pixels
Height : 576 pixels
Display aspect ratio : 16:9
Frame rate mode : Constant
Frame rate : 23.976 (24000/1001) FPS
Color space : YUV
Chroma subsampling : 4:2:0
Bit depth : 8 bits
Scan type : Progressive
Bits/(Pixel*Frame) : 0.130
Stream size : 1.28 GiB (69%)
Title : -=DoMiNo=-
Writing library : x264 core 164 by -=DoMiNo=-
Encoding settings : cabac=1 / ref=12 / deblock=1:-2:-2 / analyse=0×3:0×133 / me=umh / subme=10 / psy=1 / psy_rd=1.05:0.20 / mixed_ref=1 / me_range=32 / chroma_me=1 / trellis=2 / 8×8dct=1 / cqm=0 / deadzone=21,11 / fast_pskip=0 / chroma_qp_offset=-3 / threads=17 / lookahead_threads=4 / sliced_threads=0 / nr=0 / decimate=1 / interlaced=0 / bluray_compat=0 / constrained_intra=0 / bframes=10 / b_pyramid=2 / b_adapt=2 / b_bias=0 / direct=1 / weightb=1 / open_gop=0 / weightp=2 / keyint=250 / keyint_min=23 / scenecut=40 / intra_refresh=0 / rc_lookahead=60 / rc=crf / mbtree=0 / crf=20.5 / qcomp=0.65 / qpmin=0 / qpmax=69 / qpstep=4 / vbv_maxrate=50000 / vbv_bufsize=62500 / crf_max=0.0 / nal_hrd=none / filler=0 / ip_ratio=1.35 / pb_ratio=1.25 / aq=3:0.90
Language : English
Default : Yes
Forced : No
Color range : Limited
Color primaries : BT.709
Transfer characteristics : BT.709
Matrix coefficients : BT.709

Audio #1
ID : 2
Format : AC-3
Format/Info : Audio Coding 3
Commercial name : Dolby Digital
Codec ID : A_AC3
Duration : 1 h 40 min
Bit rate mode : Constant
Bit rate : 448 kb/s
Channel (s) : 6 channels
Channel layout : L R C LFE Ls Rs
Sampling rate : 48.0 kHz
Frame rate : 31.250 FPS (1536 SPF)
Compression mode : Lossy
Stream size : 321 MiB (17%)
Title : MVO_[Кипарис]
Language : Russian
Service kind : Complete Main
Default : Yes
Forced : Yes

Audio #2
ID : 3
Format : AC-3
Format/Info : Audio Coding 3
Commercial name : Dolby Digital
Codec ID : A_AC3
Duration : 1 h 40 min
Bit rate mode : Constant
Bit rate : 384 kb/s
Channel (s) : 6 channels
Channel layout : L R C LFE Ls Rs
Sampling rate : 48.0 kHz
Frame rate : 31.250 FPS (1536 SPF)
Compression mode : Lossy
Stream size : 275 MiB (14%)
Title : Original
Language : English
Service kind : Complete Main
Default : No
Forced : No

Text
ID : 4
Format : UTF-8
Codec ID : S_TEXT/UTF8
Codec ID/Info : UTF-8 Plain Text
Duration : 1 h 35 min
Bit rate : 48 b/s
Count of elements : 1228
Stream size : 34.0 KiB (0%)
Language : English
Default : No
Forced : No

pb.wtf



Скачать Резня на кладбище через торрент https://i120.fastpic.org/big/2022/0709/01/7068ee624741af4e32f324d6c6a75701.jpg Скачать, смотреть онлайн Резня на кладбище бесплантно в хорошем качестве Описание: Группа студентов решает провести ночь в заброшенном поместье, построенном на священном индейском кладбище. Они еще не знают, что ... 10 10 2
Торрент: Зарегистрирован [2022-07-09 13:59] · скачан: 27 раз
Статус: √ проверено
Размер: 1.87 GB
Как cкачать? Как скачать Резня на кладбище через торрент | UTorrent

% Раздел Тема Автор DL S | L
Фильмы 2021 [DVDrip, WEB-DLRip, HDrip] (DUB, MVO) [ 1.46 GB ] Резня на кладбище / Burial Ground Massacre / Jungle Room [2021 WEB-DLRip] MVO [Кипарис] bober100 Скачать
1 | 0

28-11-2019 20:33  

Отключить вcю реклaмy на сайте

    Дорогой пользователь! Огромная просьба, поблагодарите релизера, оцените раздачу и оставьте свои комментарий, если Вы скачали Резня на кладбище через торрент бесплатно!
    Комментировать посты могут только пользователи прошедшие не сложную регистрацию
    Показать сообщения:    

    Резня на кладбище через торрент
    Скачать бесплатно Резня на кладбище
    Резня на кладбище скачать торрент
    Резня на кладбище смотреть онлайн
    Cкачать фильм Резня на кладбище бесплатно
    Резня на кладбище скачать торрент в хорошем качестве
    Резня на кладбище смотреть онлайн бесплатно в хорошем качестве


    Вы не можете начинать темы
    Вы не можете отвечать на сообщения
    Вы не можете редактировать свои сообщения
    Вы не можете удалять свои сообщения
    Вы не можете голосовать в опросах
    Вы не можете прикреплять файлы к сообщениям
    Вы можете скачивать файлы