Всегда рабочее зеркало без VPN и Proxy просто перед .vidak.icu напиши любое слово или цифру, Пример http://3v7b.vidak.icu

Лицензия

MVO

1 сезон

1

1 сезон

iTunes

1 сезон

13

1 сезон

Deluxe

pack

Рекомендуем

Repack

30

ВАЖНО

RePack

MK11

RePack

jed

RePack

fifa19

RePack

RDR2

RePack

NEED FOR SPEED™ PAYBACK

Кинопоиск HD

6 сезон

 Острые козырьки 6 сезон

Все сериалы

все сериалы на PB.wtf

RePack

FAR CRY 5
  
Magnet ссылка

Под напряжением / Сезон: 1 / Серии: 1-32 из 32 (Станислав Мареев) [2018, Детектив, драма, триллер, SATRip] pb.wtf

Под напряжением через торрент pb.wtf

Раздают: 9 [ 778 KB/s ] Качают: 2 [ 0 KB/s ]
Размер: 20.25 GB | Добавлен: 12 д. назад | Торрент скачан:37 раз
Смотреть онлайн Под напряжением | Скачать    Ребята, помогите собрать деньги на оплату серверов!!!

11-07-2022 17:26 Под напряжением Скачать торрент  

Под напряжением
Год выпуска: 2018
Страна: Россия
Жанр: Детектив, драма, триллер
Продолжительность: ~ 00:50:00
Субтитры: отсутствуют

Режиссер: Станислав Мареев



В ролях: Сергей Астахов, Нина Гогаева, Екатерина Головина (II), Рубен Симонов (II), Дмитрий Астапенко, Игорь Новосёлов, Александр Кузнецов, Марина Мартис, Виктор Рябов (II), Анастасия Чуева, Андрей Лавров, Дмитрий Никонов, Денис Доронин, Гамаз Сандулян, Алексей Овсянников, Антон Ушаков, Инна Хотеенкова, Валентина Кошкина, Александр Богданов (II), Татьяна Дрожжина, Дмитрий Дьяченко (II), Марина Вайнбранд, Елена Пономарёва, Ксения Чехова, Роман Чора, Мария Куркова, Евгений Женихов, Владимир Бутенко, Татьяна Тимакова

Описание: В небольшом приморском городке происходит череда убийств: жертвы, которых нашла полиция, замучены до смерти. Расследованием этой серии занимается следователь СК Ирина Шумская. Она решает обратиться за помощью к клиническому психологу Андрею Высокову, который обладает навыком «проникать» в голову к преступнику и считывать его логику. Осмотрев тела и места, где их оставили, Андрей приходит к выводу, что это дело рук серийного маньяка, и что это явно не конец – преступнику нравится дразнить полицию и, возможно, следующей его жертвой будет именно полицейский. Ирина Шумская начинает прорабатывать новую версию убийств, однако ей мешает начальник отдела Борис Мокроусов, и причин тому несколько: во-первых, он не хочет шумихи в прессе, которая развернётся, если станет известно о маньяке, а во-вторых, он против работы психолога в команде, потому что считает её бесполезной. Однако вскоре происходит убийство, доказывающее версию Высокова.

Качество: SATRip
Формат: AVI

Видео: XviD, ~ 1850 Кбит/с, 720x400
Аудио: MP3, 2 ch, 192 Кбит/с
скриншот  скриншот  скриншот  скриншот  

Общее
Полное имя : D:Pod.napryazheniem.2018.XviD.SATRip.25Kuzmich\Pod.napryazheniem.e01.XviD.SATRip.25Kuzmich.avi
Формат : AVI
Формат/Информация : Audio Video Interleave
Размер файла : 640 Мбайт
Продолжительность : 48 м. 20 с.
Общий поток : 1 852 Кбит/сек
Программа кодирования : VirtualDubMod 1.5.10.3 | www.virtualdub-fr.org || (build 2550/release)
Библиотека кодирования : VirtualDubMod build 2550/release

Видео
Идентификатор : 0
Формат : MPEG-4 Visual
Профиль формата : Advanced [email protected]
Настройки формата : BVOP1
Параметр BVOP формата : 1
Параметр QPel формата : Нет
Параметр GMC формата : Без точки перехода
Параметр матрицы формата : Default (MPEG)
Идентификатор кодека : XVID
Идентификатор кодека/Подсказка : XviD
Продолжительность : 48 м. 20 с.
Продолжительность оригинала : 29 м. 41 с.
Битрейт : 1 841 Кбит/сек
Ширина : 720 пикселей
Высота : 400 пикселей
Соотношение сторон : 16:9
Частота кадров : 25,000 кадров/сек
Цветовое пространство : YUV
Субдискретизация насыщенности : 4:2:0
Битовая глубина : 8 бит
Тип развёртки : Прогрессивная
Метод сжатия : С потерями
Бит/(Пиксели*Кадры) : 0.256
Размер потока : 391 Мбайт (61%)
Библиотека кодирования : XviD 73

Аудио
Идентификатор : 1
Формат : MPEG Audio
Версия формата : Version 1
Профиль формата : Layer 3
Идентификатор кодека : 55
Идентификатор кодека/Подсказка : MP3
Продолжительность : 48 м. 20 с.
Продолжительность оригинала : 29 м. 41 с.
Вид битрейта : Постоянный
Битрейт : 192 Кбит/сек
Каналы : 2 канала
Частота : 48,0 КГц
Частота кадров : 41,667 кадра/сек (1152 SPF)
Метод сжатия : С потерями
Размер потока : 40,8 Мбайт (6%)
Выравнивание : Соединение по промежуткам
Продолжительность промежутка : 40 мс. (1,00 видеокадр)
Время предзагрузки промежутка : 504 мс.
Библиотека кодирования : LAME3.99r
Настройки программы : -m s -V 4 -q 0 -lowpass 18.6 -b 192

Когда раздача ведётся путём добавления новых серий, при каждом добавлении создётся новый торрент. Чтобы начать докачку новой серии, пользователям необходимо сделать следующее:
(1) остановить скачивание,
(2) удалить старый торрент у себя из клиента (старые серии удалять не надо),
(3) скачать новый торрент и запустить его у себя в клиенте вместо старого, при этом указать клиенту путь в старую папку, куда и должно происходить скачивание новых серий.
Ваш клиент при этом должен произвести хеширование (проверку) старой папки (если не производит сам - помогите ему сделать это), и будет докачивать только те серии, которых у вас ещё нет. Старые серии при этом не удаляются, а продолжают раздаваться!
Eсли вы уже удалили старые серии, то предотвратить повторную закачку старых серий можно, отжав галочку в соответсвующих местах при запуске нового торрента. По возможности, желательно не удалять старые серии как можно дольше, чтобы релизёр не столько продолжал раздавать старые серии, а смог сконцентрироваться на новых.

pb.wtf



Скачать Под напряжением через торрент https://i120.fastpic.org/big/2022/0711/a8/8deb753e4b49fdd83d67440513b35aa8.jpeg Скачать, смотреть онлайн Под напряжением бесплантно в хорошем качестве Описание: В небольшом приморском городке происходит череда убийств: жертвы, которых нашла полиция, замучены до смерти. Расследованием этой ... 7.9 10 13
Торрент: Зарегистрирован [2022-08-04 14:48] · скачан: 37 раз
Статус: √ проверено
Размер: 20.25 GB
Как cкачать? Как скачать Под напряжением через торрент | UTorrent

% Раздел Тема Автор DL S | L
Наши сериалы [ 100.65 GB ] Под напряжением / Сезон: 1 / Серии: 1-32 из 32 [2018 HDTV 1080i] bober100 Скачать
2 | 1


Последний раз редактировалось: bober100 (2022-08-04 14:48), всего редактировалось 16 раз(а)

28-11-2019 20:33  

Отключить вcю реклaмy на сайте

11-07-2022 21:30 Под напряжением Скачать торрент  

Какая впечатляющая игра актеров, не выдержал первую серию.
Как туда заманили Астахова и Гогаеву - вопрос.pb.wtf



    Дорогой пользователь! Огромная просьба, поблагодарите релизера, оцените раздачу и оставьте свои комментарий, если Вы скачали Под напряжением через торрент бесплатно!
    Комментировать посты могут только пользователи прошедшие не сложную регистрацию
    Показать сообщения:    

    Под напряжением через торрент
    Скачать бесплатно Под напряжением
    Под напряжением скачать торрент
    Под напряжением смотреть онлайн
    Cкачать фильм Под напряжением бесплатно
    Под напряжением скачать торрент в хорошем качестве
    Под напряжением смотреть онлайн бесплатно в хорошем качестве


    Вы не можете начинать темы
    Вы не можете отвечать на сообщения
    Вы не можете редактировать свои сообщения
    Вы не можете удалять свои сообщения
    Вы не можете голосовать в опросах
    Вы не можете прикреплять файлы к сообщениям
    Вы можете скачивать файлы