Всегда рабочее зеркало без VPN и Proxy просто перед .vidak.icu напиши любое слово или цифру, Пример http://5pj6.vidak.icu

Лицензия

MVO

1 сезон

1

1 сезон

iTunes

1 сезон

13

1 сезон

Deluxe

pack

Рекомендуем

Repack

30

ВАЖНО

RePack

MK11

RePack

jed

RePack

fifa19

RePack

RDR2

RePack

NEED FOR SPEED™ PAYBACK

Кинопоиск HD

6 сезон

 Острые козырьки 6 сезон

Все сериалы

все сериалы на PB.wtf

RePack

FAR CRY 5
  
Magnet ссылка

Коати. Легенда джунглей / Коати. Сердце джунглей / Koati (Родриго Перес-Кастро) [2021, Мультфильм, фэнтези, приключения, семейный, WEB-DL 1080p] DUB [iTunes] pb.wtf

Коати. Легенда джунглей через торрент pb.wtf

Раздают: 4 [ 90 KB/s ]
Размер: 4.73 GB | Добавлен: 1 мес. 5 д. назад | Торрент скачан:78 раз
Смотреть онлайн Коати. Легенда джунглей | Скачать    Ребята, помогите собрать деньги на оплату серверов!!!

11-07-2022 18:25 Коати. Легенда джунглей Скачать торрент  

Коати. Легенда джунглей / Коати. Сердце джунглей
Koati

Год выпуска: 2021
Страна: Мексика, США
Студия: Latin We, Los Hijos de Jack, Upstairs
Жанр: Мультфильм, фэнтези, приключения, семейный
Продолжительность: 01:31:54
Перевод: Дублированный | iTunes
Субтитры: отсутствуют

Режиссер: Родриго Перес-Кастро

rating

В ролях: Себас, Эвалуна Монтанер, Эдуардо Франко, София Вергара, Джо Манганьелло, Адриана Барраса, Де Ла Гетто, Кэрол Джи, Мишель Лепе, Даниэль Соса

Описание: Где-то далеко-далеко в таинственных джунглях Амазонии обитают самые удивительные животные. И среди них — обаятельный и очень храбрый зверек Коати. Собрав своих верных друзей: прекрасную бабочку и непоседливого лягушонка, он отправится в захватывающее приключение! Вместе им предстоит остановить землетрясение, разгадать загадку бушующего вулкана, спасти жителей джунглей от коварной змеи и доказать, что героем может стать каждый, стоит только поднять свой пушистый хвост!

Качество: WEB-DL 1080p
Формат: MKV

Видео: MPEG-4 AVC, 6595 Кb/s, 1912x796, 24 fps
Аудио #01: 48 kHz, AC3, 5.1, 384 Kbps | Дублированный | iTunes | RUS |
Аудио #02: 48 kHz, AC3, 5.1, 384 Kbps | Оригинал | ENG |
скриншот  скриншот  скриншот  скриншот  

Complete name: Koati.2022.WEB-DL.1080p.ELEKTRI4KA.UNIONGANG.mkv
Format: Matroska
Format version: Version 4
File size: 4.73 GiB
Duration: 1 h 31 min
Overall bit rate: 7 365 kb/s
Movie name: Koati.2022.WEB-DL.1080p.ELEKTRI4KA.UNIONGANG.
Encoded date: UTC 2022-07-11 14:07:00
Writing application: mkvmerge v8.3.0 ('Over the Horizon') 32bit
Writing library: libebml v1.3.1 + libmatroska v1.4.2

Video
ID: 1
Format: AVC
Format/Info: Advanced Video Codec
Format profile: [email protected]
Format settings: CABAC / 5 Ref Frames
Format settings, CABAC: Yes
Format settings, Reference frames: 5 frames
Codec ID: V_MPEG4/ISO/AVC
Duration: 1 h 31 min
Bit rate: 6 595 kb/s
Width: 1 912 pixels
Height: 796 pixels
Display aspect ratio: 2.40:1
Frame rate mode: Constant
Frame rate: 24.000 FPS
Color space: YUV
Chroma subsampling: 4:2:0
Bit depth: 8 bits
Scan type: Progressive
Bits/(Pixel*Frame): 0.181
Stream size: 4.23 GiB (90%)
Default: Yes
Forced: No
Color range: Limited
Color primaries: BT.709
Transfer characteristics: BT.709
Matrix coefficients: BT.709

Audio #1
ID: 2
Format: AC-3
Format/Info: Audio Coding 3
Commercial name: Dolby Digital
Codec ID: A_AC3
Duration: 1 h 31 min
Bit rate mode: Constant
Bit rate: 384 kb/s
Channel(s): 6 channels
Channel layout: L R C LFE Ls Rs
Sampling rate: 48.0 kHz
Frame rate: 31.250 FPS (1536 SPF)
Compression mode: Lossy
Stream size: 252 MiB (5%)
Title: DUB (iTunes)
Language: Russian
Service kind: Complete Main
Default: Yes
Forced: Yes

Audio #2
ID: 3
Format: AC-3
Format/Info: Audio Coding 3
Commercial name: Dolby Digital
Codec ID: A_AC3
Duration: 1 h 31 min
Bit rate mode: Constant
Bit rate: 384 kb/s
Channel(s): 6 channels
Channel layout: L R C LFE Ls Rs
Sampling rate: 48.0 kHz
Frame rate: 31.250 FPS (1536 SPF)
Compression mode: Lossy
Stream size: 252 MiB (5%)
Title: Original
Language: English
Service kind: Complete Main
Default: No
Forced: No

pb.wtf



Скачать Коати. Легенда джунглей через торрент https://i120.fastpic.org/big/2022/0709/11/be110b3bf26514ea4b83c36c5aad0a11.jpg Скачать, смотреть онлайн Коати. Легенда джунглей бесплантно в хорошем качестве Описание: Где-то далеко-далеко в таинственных джунглях Амазонии обитают самые удивительные животные. И среди них — обаятельный и очень ... 10 10 4
Торрент: Зарегистрирован [2022-07-11 18:25] · скачан: 78 раз
Статус: √ проверено
Размер: 4.73 GB
Как cкачать? Как скачать Коати. Легенда джунглей через торрент | UTorrent

% Раздел Тема Автор DL S | L
Иностранные мультфильмы [ 1.46 GB ] Коати. Легенда джунглей / Коати. Сердце джунглей / Koati [2021 Мультфильм WEB-DLRip] bober100 Скачать
6 | 0

28-11-2019 20:33  

Отключить вcю реклaмy на сайте

    Дорогой пользователь! Огромная просьба, поблагодарите релизера, оцените раздачу и оставьте свои комментарий, если Вы скачали Коати. Легенда джунглей через торрент бесплатно!
    Комментировать посты могут только пользователи прошедшие не сложную регистрацию
    Показать сообщения:    

    Коати. Легенда джунглей через торрент
    Скачать бесплатно Коати. Легенда джунглей
    Коати. Легенда джунглей скачать торрент
    Коати. Легенда джунглей смотреть онлайн
    Cкачать фильм Коати. Легенда джунглей бесплатно
    Коати. Легенда джунглей скачать торрент в хорошем качестве
    Коати. Легенда джунглей смотреть онлайн бесплатно в хорошем качестве


    Вы не можете начинать темы
    Вы не можете отвечать на сообщения
    Вы не можете редактировать свои сообщения
    Вы не можете удалять свои сообщения
    Вы не можете голосовать в опросах
    Вы не можете прикреплять файлы к сообщениям
    Вы можете скачивать файлы