Лицензия

MVO

1

1 сезон

Лицензия

Лицензия

13

MVO

1 сезон

Deluxe Edition

pack

Рекомендуем

30

Repack

ВАЖНО

ВАЖНО

Ghostwire

RePack

jed

RePack

fifa19

RePack

RDR2

RePack

NEED FOR SPEED™ PAYBACK

RePack

Кинопоиск HD

 Острые козырьки 6 сезон

6 сезон

FAR CRY 6

RePack

Лицензия

MVO

1

1 сезон

1 сезон

Лицензия

  

Миссия: Аметист / Сезон: 1 / Серия: 1-8 из 8 (Антон Борматов) [2021, Шпионский детектив, WEBRip-AVC]

Миссия: Аметист через торрент pb.wtf

Раздают: 5 [ 520 KB/s ]
Размер: 4.99 GB | Добавлен: 2 мес. 14 д. назад | Торрент скачан:73 раза
Смотреть онлайн Миссия: Аметист | Скачать   

12-07-2022 07:33 Миссия: Аметист Скачать торрент  

Миссия: Аметист
Год выпуска: 2021
Страна: Россия
Выпущено: COSMOS studio по заказу АО «Первый канал»
Жанр: Шпионский детектив
Продолжительность: ~ 00:53:00 серия
Перевод: Не требуется
Субтитры: Русские

Режиссер: Антон Борматов



В ролях: Агния Дитковските, Александр Устюгов, Сергей Чонишвили, Юрий Беляев, Николай Мачульский, Надежда Борисова, Виктор Тереля, Пьер Бурель, Антон Филипенко, Алексей Матошин, Алексей Розин, Анастасия Микульчина, Джонатан Солвей, Стасс Классен, Ричард Уилсон (II), Даниэле Галеа, Артур Ваха, Марк-Малик Мурашкин, Григорий Зельцер, Григорий Данцигер, Сергей Внуков

Описание: Службе внешней разведки РФ становится известно, что некий сотрудник ЦРУ, негласно действуя по указанию теневого американского альянса, разворачивает многоходовую операцию с целью полной дискредитации России на мировой арене. Предотвращение диверсии поручено «спящему агенту» - российской девушке в Италии, поскольку теневой альянс имеет прямые связи с мафией. История развивается в наши дни параллельно в Италии и России. Удастся ли хрупкой девушке предотвратить глобальный конфликт?..

Качество: WEBRip-AVC
Формат: MKV

Видео: MPEG-4 AVC, ~ 1600 Кбит/с, 1024x464, 25 кадр/с
Аудио: 48.0 kHz, AC3 Dolby Digital, 2/0 (L,R) ch, ~ 192 kbps

General
Unique ID : 61267164664292771886284518959685837063 (0x2E17A06FA36CE83F54571E83B7E82107)
Complete name : F:\Миссия. Аметист.(2021).WEBRip.(AVC).Files-x\01.Миссия. Аметист.(2021).WEBRip.(AVC).by.Серый1779.Files-x.mkv
Format : Matroska
Format version : Version 4 / Version 2
File size : 671 MiB
Duration : 52 min 17 s
Overall bit rate : 1 793 kb/s
Encoded date : UTC 2022-06-27 15:38:30
Writing application : mkvmerge v32.0.0 ('Astral Progressions') 64-bit
Writing library : libebml v1.3.7 + libmatroska v1.5.0

Video
ID : 1
Format : AVC
Format/Info : Advanced Video Codec
Format profile : [email protected]
Format settings : CABAC / 9 Ref Frames
Format settings, CABAC : Yes
Format settings, RefFrames : 9 frames
Codec ID : V_MPEG4/ISO/AVC
Duration : 52 min 17 s
Bit rate : 1 600 kb/s
Width : 1 024 pixels
Height : 464 pixels
Display aspect ratio : 2.2:1
Frame rate mode : Constant
Frame rate : 25.000 FPS
Color space : YUV
Chroma subsampling : 4:2:0
Bit depth : 8 bits
Scan type : Progressive
Bits/(Pixel*Frame) : 0.135
Stream size : 598 MiB (89%)
Writing library : x264 core 146 r2538 121396c
Encoding settings : cabac=1 / ref=9 / deblock=1:-2:-1 / analyse=0x3:0x133 / me=umh / subme=9 / psy=1 / psy_rd=1.00:0.15 / mixed_ref=1 / me_range=32 / chroma_me=1 / trellis=2 / 8x8dct=1 / cqm=0 / deadzone=21,11 / fast_pskip=0 / chroma_qp_offset=-3 / threads=18 / lookahead_threads=3 / sliced_threads=0 / nr=0 / decimate=1 / interlaced=0 / bluray_compat=0 / constrained_intra=0 / bframes=9 / b_pyramid=2 / b_adapt=2 / b_bias=0 / direct=1 / weightb=1 / open_gop=0 / weightp=2 / keyint=250 / keyint_min=25 / scenecut=40 / intra_refresh=0 / rc=2pass / mbtree=0 / bitrate=1600 / ratetol=1.0 / qcomp=0.60 / qpmin=0 / qpmax=69 / qpstep=4 / cplxblur=20.0 / qblur=0.5 / ip_ratio=1.40 / pb_ratio=1.30 / aq=2:1.00
Default : Yes
Forced : No
Color range : Limited
Color primaries : BT.709
Transfer characteristics : BT.709
Matrix coefficients : BT.709

Audio
ID : 2
Format : AC-3
Format/Info : Audio Coding 3
Format settings, Endianness : Big
Codec ID : A_AC3
Duration : 52 min 17 s
Bit rate mode : Constant
Bit rate : 192 kb/s
Channel(s) : 2 channels
Channel positions : Front: L R
Sampling rate : 48.0 kHz
Frame rate : 31.250 FPS (1536 SPF)
Bit depth : 16 bits
Compression mode : Lossy
Stream size : 71.8 MiB (11%)
Service kind : Complete Main
Default : Yes
Forced : No

Text
ID : 3
Format : UTF-8
Codec ID : S_TEXT/UTF8
Codec ID/Info : UTF-8 Plain Text
Duration : 49 min 22 s
Bit rate : 108 b/s
Count of elements : 521
Stream size : 39.1 KiB (0%)
Default : Yes
Forced : No




Скачать Миссия: Аметист через торрент https://i120.fastpic.org/big/2022/0626/6e/05feb6b2f8b198f125c65293e2e2a76e.jpg Скачать, смотреть онлайн Миссия: Аметист бесплантно в хорошем качестве Описание: Службе внешней разведки РФ становится известно, что некий сотрудник ЦРУ, негласно действуя по указанию теневого американского ... 10 10 3
Торрент: Зарегистрирован [2022-07-12 07:33] · скачан: 73 раз
Статус: √ проверено
Размер: 4.99 GB
Как cкачать? Как скачать Миссия: Аметист через торрент | UTorrent

% Раздел Тема Автор DL S | L
Наши сериалы [ 11.3 GB ] Миссия: Аметист / Сезон: 1 / Серия: 1-8 из 8 | | 1080p bober100 Скачать
2 | 1
Наши сериалы [ 5.23 GB ] Миссия: Аметист / Сезон: 1 / Серия: 1-8 из 8 | | SATRip bober100 Скачать
5 | 0
Наши сериалы [ 4.96 GB ] Миссия: Аметист / Сезон: 1 / Серия: 1-8 из 8 | | WEBRip bober100 Скачать
5 | 0

28-11-2019 20:33  

Отключить вcю реклaмy на сайте

    Дорогой пользователь! Огромная просьба, поблагодарите релизера, оцените раздачу и оставьте свои комментарий, если Вы скачали Миссия: Аметист через торрент бесплатно!!
    Комментировать посты могут только пользователи прошедшие не сложную регистрацию
    Показать сообщения:    


    Миссия: Аметист через торрент
    Скачать бесплатно Миссия: Аметист
    Миссия: Аметист скачать торрент
    Миссия: Аметист смотреть онлайн
    Cкачать фильм Миссия: Аметист бесплатно
    Миссия: Аметист скачать торрент в хорошем качестве
    Миссия: Аметист смотреть онлайн бесплатно в хорошем качестве
    Вы не можете начинать темы
    Вы не можете отвечать на сообщения
    Вы не можете редактировать свои сообщения
    Вы не можете удалять свои сообщения
    Вы не можете голосовать в опросах
    Вы не можете прикреплять файлы к сообщениям
    Вы можете скачивать файлы