Всегда рабочее зеркало без VPN и Proxy просто перед .vidak.icu напиши любое слово или цифру, Пример http://8h24.vidak.icu

Лицензия

MVO

1 сезон

1

1 сезон

iTunes

1 сезон

13

1 сезон

Deluxe

pack

Рекомендуем

Repack

30

ВАЖНО

RePack

MK11

RePack

jed

RePack

fifa19

RePack

RDR2

RePack

NEED FOR SPEED™ PAYBACK

Кинопоиск HD

6 сезон

 Острые козырьки 6 сезон

Все сериалы

все сериалы на PB.wtf

RePack

FAR CRY 5
  
Magnet ссылка

Крутые яйца 2 / Un rescate de huevitos (Габриэль Рива Паласио Алатристе, Родольфо Рива Паласио Алатристе) [2021, Мультфильм, фэнтези, комедия, приключения, семейный, WEB-DL 1080p] [Локализованная версия] DUB [Мосфильм-Мастер] pb.wtf

Крутые яйца 2 через торрент pb.wtf

Раздают: 2 [ 186 KB/s ]
Размер: 3.46 GB | Добавлен: 1 мес. 5 д. назад | Торрент скачан:64 раза
Смотреть онлайн Крутые яйца 2 | Скачать    Ребята, помогите собрать деньги на оплату серверов!!!

12-07-2022 07:56 Крутые яйца 2 Скачать торрент  

Крутые яйца 2
Un rescate de huevitos

Год выпуска: 2021
Страна: Мексика
Жанр: Мультфильм, фэнтези, комедия, приключения, семейный
Продолжительность: 01:28:28
Перевод: Профессиональный полное дублирование) | Мосфильм-Мастер
Субтитры: отсутствуют

Режиссер: Габриэль Рива Паласио Алатристе, Родольфо Рива Паласио Алатристе

rating

В ролях: Бруно Бичир, Майте Перрони Беорлеги, Анхелика Вале, Карлос Эспехель, Майра Рохас, Оливер Флорес, Дионе Рива Палачио Сантакруз, Ариэль Мирамонтес, Эктор Ли, Хуан Фрезе

Описание: Умиротворенное существование мексиканского петуха Тото кардинально нарушается, когда похитительница украла его яйца, из которых обязаны были в скором времени вылупиться детки. Они отправились в Африку, где должны будут стать пищей для гурманов. Надо следовать незамедлительно за ними, чтобы в конечном итоге спасти. Чем закончится подобного рода операция по спасению?

Качество: WEB-DL 1080p | Локализованная версия
Формат: MKV

Видео: 1920x1080 (16:9), 24 fps, MPEG-4 AVC ~ 5150 Kbps avg, 0.103 bit/pixel
Аудио: 48 kHz, AC3 Dolby Digital, 3/2 (L, C, R, l, r) + LFE ch, ~448 Kbps
скриншот  скриншот  скриншот  скриншот  скриншот  

Общее
Уникальный идентификатор : 124851785478396892089162267181977878802 (0x5DED94482CD78BEE3B3E29A7CFC2C112)
Полное имя : Un.rescate.de.huevitos.2021.D.1080p.WEB-DL.DD.5.1.MegaPeer.mkv
Формат : Matroska
Версия формата : Version 4
Размер файла : 3, 46 Гбайт
Продолжительность : 1 ч. 28 м.
Общий поток : 5 599 Кбит/сек
Название фильма : Крутые яйца 2 / Un rescate de huevitos (2021) от MegaPeer
Дата кодирования : UTC 2022-07-11 16:51:08
Программа кодирования : mkvmerge v68.0.0 ('The Curtain') 64-bit
Библиотека кодирования : libebml v1.4.2 + libmatroska v1.6.4
Обложка : Yes
Attachments : cover.jpg

Видео
Идентификатор : 1
Формат : AVC
Формат/Информация : Advanced Video Codec
Профиль формата : [email protected]
Настройки формата : CABAC / 2 Ref Frames
Параметр CABAC формата : Да
Параметр RefFrames формата : 2 кадра
Идентификатор кодека : V_MPEG4/ISO/AVC
Продолжительность : 1 ч. 28 м.
Битрейт : 5 150 Кбит/сек
Ширина : 1 920 пикселей
Высота : 1 080 пикселей
Соотношение сторон : 16:9
Режим частоты кадров : Постоянный
Частота кадров : 24, 000 кадра/сек
Цветовое пространство : YUV
Субдискретизация насыщенности : 4:2:0
Битовая глубина : 8 бит
Тип развёртки : Прогрессивная
Бит/(Пиксели*Кадры) : 0.103
Размер потока : 3, 18 Гбайт (92%)
Язык : Russian
Default : Да
Forced : Нет

Аудио
Идентификатор : 2
Формат : AC-3
Формат/Информация : Audio Coding 3
Коммерческое название : Dolby Digital
Идентификатор кодека : A_AC3
Продолжительность : 1 ч. 28 м.
Вид битрейта : Постоянный
Битрейт : 448 Кбит/сек
Каналы : 6 каналов
Channel layout : L R C LFE Ls Rs
Частота : 48, 0 КГц
Частота кадров : 31, 250 кадров/сек (1536 SPF)
Метод сжатия : С потерями
Задержка видео : -43 мс.
Размер потока : 283 Мбайт (8%)
Заголовок : DUB | Мосфильм-Мастер
Язык : Russian
Service kind : Complete Main
Default : Да
Forced : Да

pb.wtf



Скачать Крутые яйца 2 через торрент https://i120.fastpic.org/big/2022/0709/d9/feb5cb69862a985efc9f8da0e64ce9d9.jpg Скачать, смотреть онлайн Крутые яйца 2 бесплантно в хорошем качестве Описание: Умиротворенное существование мексиканского петуха Тото кардинально нарушается, когда похитительница украла его яйца, из которых ... 10 10 5
Торрент: Зарегистрирован [2022-07-12 07:56] · скачан: 64 раз
Статус: √ проверено
Размер: 3.46 GB
Как cкачать? Как скачать Крутые яйца 2 через торрент | UTorrent

% Раздел Тема Автор DL S | L
Мультфильмы (48-60 fps) [ 3.92 GB ] Крутые яйца 2 / Un rescate de huevitos [2021 Мультфильм WEB-DLRip 720p / 60 FPS ] от R.G. HD-Films slaventi-69 Скачать
5 | 0
Иностранные мультфильмы [ 1.46 GB ] Крутые яйца 2 / Un rescate de huevitos [2021 Мультфильм WEB-DLRip] [Локализованная версия] DUB [Мосфильм-Мастер] bober100 Скачать
5 | 0

28-11-2019 20:33  

Отключить вcю реклaмy на сайте

    Дорогой пользователь! Огромная просьба, поблагодарите релизера, оцените раздачу и оставьте свои комментарий, если Вы скачали Крутые яйца 2 через торрент бесплатно!
    Комментировать посты могут только пользователи прошедшие не сложную регистрацию
    Показать сообщения:    

    Крутые яйца 2 через торрент
    Скачать бесплатно Крутые яйца 2
    Крутые яйца 2 скачать торрент
    Крутые яйца 2 смотреть онлайн
    Cкачать фильм Крутые яйца 2 бесплатно
    Крутые яйца 2 скачать торрент в хорошем качестве
    Крутые яйца 2 смотреть онлайн бесплатно в хорошем качестве


    Вы не можете начинать темы
    Вы не можете отвечать на сообщения
    Вы не можете редактировать свои сообщения
    Вы не можете удалять свои сообщения
    Вы не можете голосовать в опросах
    Вы не можете прикреплять файлы к сообщениям
    Вы можете скачивать файлы