Всегда рабочее зеркало без VPN и Proxy просто перед .vidak.icu напиши любое слово или цифру, Пример http://77sg.vidak.icu

Лицензия

MVO

1 сезон

1

1 сезон

iTunes

1 сезон

13

1 сезон

Deluxe

pack

Рекомендуем

Repack

30

ВАЖНО

RePack

MK11

RePack

jed

RePack

fifa19

RePack

RDR2

RePack

NEED FOR SPEED™ PAYBACK

Кинопоиск HD

6 сезон

 Острые козырьки 6 сезон

Все сериалы

все сериалы на PB.wtf

RePack

FAR CRY 5
  
Magnet ссылка

Морской монстр / The Sea Beast (Крис Уильямс) [2022, Мультфильм, фэнтези, комедия, приключения, семейный, WEB-DL 1080p] MVO [Jaskier] pb.wtf

Морской монстр через торрент pb.wtf

Раздают: 20 [ 380 KB/s ]
Размер: 5.16 GB | Добавлен: 1 мес. 3 д. назад | Торрент скачан:324 раза
Смотреть онлайн Морской монстр | Скачать    Ребята, помогите собрать деньги на оплату серверов!!!

14-07-2022 08:39 Морской монстр Скачать торрент  

Морской монстр
The Sea Beast

Год выпуска: 2022
Страна: США
Выпущено: Netflix Animation
Жанр: Мультфильм, фэнтези, комедия, приключения, семейный
Продолжительность: 01:59:25
Перевод: Профессиональный (многоголосый) | Jaskier
Субтитры: Русские (Full), английские (Full, SDH)

Режиссер: Крис Уильямс

rating

В ролях: Карл Урбан, Дэн Стивенс, Джаред Харрис, Эмили О’Брайэн, Марианн Жан-Баптист, Кэти Бёрк, Зарис-Анжел Хатор, Барака Мэй, Сомали Роз, Бенжамин Плессала

Описание: Охотиться на больших морских монстров для охотника и капитана собственного корабля Джейкоба считается обыкновенным делом, связанным с относительными рисками. Только однажды на борт, где находился он и его единомышленники, попадает девочка Мэйси, которая тоже мечтает в будущем стать охотницей. Попытки от неё избавиться не проходят и необходимо взять неохотно ребенка в коллектив.

Качество: WEB-DL 1080p
Формат: MKV

Видео: MPEG-4 AVC, ~ 5031 Кбит/с, 1920x1080
Аудио 1: AC3, 6 ch, 384 kbps - Русский (MVO, Jaskier)
Аудио 2: E-AC3, 6 ch, 768 kbps - Английский
скриншот  скриншот  скриншот  скриншот  

Общее
Уникальный идентификатор : 87280148211369373223497765132142505592 (0x41A98B8B9D0F8F99083904119329EE78)
Полное имя :The Sea Beast (2022) WEB-DL.1080p.mkv
Формат : Matroska
Версия формата : Version 4
Размер файла : 5,16 Гбайт
Продолжительность : 1 ч. 59 м.
Режим общего битрейта : Переменный
Общий поток : 6 186 Кбит/сек
Название фильма : The Sea Beast (2022)
Дата кодирования : UTC 2022-07-12 00:38:02
Программа кодирования : mkvmerge v51.0.0 ('I Wish') 64-bit
Библиотека кодирования : libebml v1.4.0 + libmatroska v1.6.2

Видео
Идентификатор : 1
Формат : AVC
Формат/Информация : Advanced Video Codec
Профиль формата : [email protected]
Настройки формата : CABAC / 3 Ref Frames
Параметр CABAC формата : Да
Параметр RefFrames формата : 3 кадра
Идентификатор кодека : V_MPEG4/ISO/AVC
Продолжительность : 1 ч. 59 м.
Вид битрейта : Переменный
Битрейт : 5 031 Кбит/сек
Номинальный битрейт : 4 392 Кбит/сек
Максимальный битрейт : 10,7 Мбит/сек
Ширина : 1 920 пикселей
Высота : 1 080 пикселей
Соотношение сторон : 16:9
Режим частоты кадров : Постоянный
Частота кадров : 24,000 кадра/сек
Цветовое пространство : YUV
Субдискретизация насыщенности : 4:2:0
Битовая глубина : 8 бит
Тип развёртки : Прогрессивная
Бит/(Пиксели*Кадры) : 0.101
Размер потока : 4,20 Гбайт (81%)
Заголовок : The Sea Beast
Библиотека кодирования : x264 core 148 r2727 7d026e8
Настройки программы : cabac=1 / ref=3 / deblock=1:0:0 / analyse=0x1:0x111 / me=umh / subme=10 / psy=1 / psy_rd=1.00:0.00 / mixed_ref=1 / me_range=24 / chroma_me=1 / trellis=2 / 8x8dct=0 / cqm=0 / deadzone=21,11 / fast_pskip=1 / chroma_qp_offset=-2 / threads=8 / lookahead_threads=1 / sliced_threads=0 / nr=0 / decimate=1 / interlaced=0 / bluray_compat=0 / stitchable=1 / constrained_intra=0 / bframes=2 / b_pyramid=0 / b_adapt=2 / b_bias=0 / direct=3 / weightb=1 / open_gop=0 / weightp=2 / keyint=250 / keyint_min=24 / scenecut=0 / intra_refresh=0 / rc_lookahead=48 / rc=2pass / mbtree=1 / bitrate=4392 / ratetol=1.0 / qcomp=0.50 / qpmin=6 / qpmax=51 / qpstep=4 / cplxblur=20.0 / qblur=0.5 / vbv_maxrate=10725 / vbv_bufsize=14300 / nal_hrd=vbr / filler=0 / ip_ratio=1.40 / aq=1:1.00
Язык : English
Default : Да
Forced : Нет

Аудио #1
Идентификатор : 2
Формат : AC-3
Формат/Информация : Audio Coding 3
Коммерческое название : Dolby Digital
Идентификатор кодека : A_AC3
Продолжительность : 1 ч. 59 м.
Вид битрейта : Постоянный
Битрейт : 384 Кбит/сек
Каналы : 6 каналов
Channel layout : L R C LFE Ls Rs
Частота : 48,0 КГц
Частота кадров : 31,250 кадров/сек (1536 SPF)
Метод сжатия : С потерями
Размер потока : 328 Мбайт (6%)
Заголовок : MVO Jaskier
Язык : Russian
Service kind : Complete Main
Default : Да
Forced : Нет

Аудио #2
Идентификатор : 3
Формат : E-AC-3 JOC
Формат/Информация : Enhanced AC-3 with Joint Object Coding
Коммерческое название : Dolby Digital Plus with Dolby Atmos
Идентификатор кодека : A_EAC3
Продолжительность : 1 ч. 59 м.
Вид битрейта : Постоянный
Битрейт : 768 Кбит/сек
Каналы : 6 каналов
Channel layout : L R C LFE Ls Rs
Частота : 48,0 КГц
Частота кадров : 31,250 кадров/сек (1536 SPF)
Метод сжатия : С потерями
Размер потока : 656 Мбайт (12%)
Язык : English
Service kind : Complete Main
Default : Нет
Forced : Нет
Complexity index : 16
Number of dynamic objects : 15
Bed channel count : 1 канал
Bed channel configuration : LFE

Текст #1
Идентификатор : 4
Формат : UTF-8
Идентификатор кодека : S_TEXT/UTF8
Идентификатор кодека/Информация : UTF-8 Plain Text
Продолжительность : 1 ч. 54 м.
Битрейт : 62 бит/сек
Count of elements : 1055
Размер потока : 52,2 Кбайт (0%)
Язык : Russian
Default : Да
Forced : Да

Текст #2
Идентификатор : 5
Формат : UTF-8
Идентификатор кодека : S_TEXT/UTF8
Идентификатор кодека/Информация : UTF-8 Plain Text
Продолжительность : 1 ч. 47 м.
Битрейт : 40 бит/сек
Count of elements : 1066
Размер потока : 31,8 Кбайт (0%)
Язык : English
Default : Нет
Forced : Нет

Текст #3
Идентификатор : 6
Формат : UTF-8
Идентификатор кодека : S_TEXT/UTF8
Идентификатор кодека/Информация : UTF-8 Plain Text
Продолжительность : 1 ч. 54 м.
Битрейт : 56 бит/сек
Count of elements : 1856
Размер потока : 47,5 Кбайт (0%)
Заголовок : SDH
Язык : English
Default : Нет
Forced : Нет

pb.wtf



Скачать Морской монстр через торрент https://i120.fastpic.org/big/2022/0711/79/072859230f8f4b7286b9f4cde4069279.jpg Скачать, смотреть онлайн Морской монстр бесплантно в хорошем качестве Описание: Охотиться на больших морских монстров для охотника и капитана собственного корабля Джейкоба считается обыкновенным делом, ... 10 10 9
Info! Золотая раздача, скачанное не засчитывается.
Торрент: Зарегистрирован [2022-07-14 08:39] · скачан: 324 раз
Статус: √ проверено
Размер: 5.16 GB
Как cкачать? Как скачать Морской монстр через торрент | UTorrent

% Раздел Тема Автор DL S | L
Мультфильмы (48-60 fps) [ 5.28 GB ] Морской монстр / The Sea Beast [2022 Мультфильм WEB-DLRip 720p / 60 FPS ] от R.G. HD-Films slaventi-69 Скачать
19 | 0

28-11-2019 20:33  

Отключить вcю реклaмy на сайте

    Дорогой пользователь! Огромная просьба, поблагодарите релизера, оцените раздачу и оставьте свои комментарий, если Вы скачали Морской монстр через торрент бесплатно!
    Комментировать посты могут только пользователи прошедшие не сложную регистрацию
    Показать сообщения:    

    Морской монстр через торрент
    Скачать бесплатно Морской монстр
    Морской монстр скачать торрент
    Морской монстр смотреть онлайн
    Cкачать фильм Морской монстр бесплатно
    Морской монстр скачать торрент в хорошем качестве
    Морской монстр смотреть онлайн бесплатно в хорошем качестве


    Вы не можете начинать темы
    Вы не можете отвечать на сообщения
    Вы не можете редактировать свои сообщения
    Вы не можете удалять свои сообщения
    Вы не можете голосовать в опросах
    Вы не можете прикреплять файлы к сообщениям
    Вы можете скачивать файлы