Достать ножи: Стеклянная луковица

MVO

Добыча

Дубляж

Уэнсдэй

1 сезон

Тор

Дубляж

13 клиническая

1 сезон

Жестокая ночь

MVO

Одни из нас

1 сезон

Deluxe

pack

Рекомендуем

30

Пиратка

ВАЖНО

ВАЖНО

Ghostwire

Пиратка

jed

RePack

nioh2

RePack

RDR2

RePack

NEED FOR SPEED™ PAYBACK

RePack

скачать торрент

Кинопоиск HD

Острые козырьки 6 сезон

6 сезон

FAR CRY 6

RePack

скачать торрент

Лицензия

скачать торрент

MVO

1

1 сезон

скачать торрент

1 сезон

скачать торрент

Лицензия

  

Криминальное чтиво / Pulp Fiction (Квентин Тарантино ) [1994, триллер, комедия, криминал, BDRip - HEVC 1080p 10 bit 60 FPS, AVO]

Криминальное чтиво через торрент pb.wtf

Раздают: 1 [ 0 KB/s ]
Размер: 5.56 GB | Добавлен: 6 мес. назад | Торрент скачан:58 раз
Смотреть онлайн | Скачать | Поддержите нас   

14-07-2022 15:59 Криминальное чтиво Скачать торрент  

Pulp Fiction
«Just because you are a character doesn't mean you have character»
Информация о фильме:
Название: Криминальное чтиво
Оригинальное название: Pulp Fiction
Год выхода: 1994
Жанр: криминал, драма
Режиссер: Квентин Тарантино
В ролях: Джон Траволта, Сэмюэл Л. Джексон, Брюс Уиллис, Ума Турман, Винг Реймз, Тим Рот, Харви Кейтель, Квентин Тарантино, Питер Грин, Аманда Пламмер
Описание: Двое бандитов Винсент Вега и Джулс Винфилд ведут философские беседы в перерывах между разборками и решением проблем с должниками криминального босса Марселласа Уоллеса. В первой истории Винсент проводит незабываемый вечер с женой Марселласа Мией. Во второй рассказывается о боксёре Бутче Кулидже, купленном Уоллесом, чтобы сдать бой. В третьей истории Винсент и Джулс по нелепой случайности попадают в неприятности.


Страна: США
Студия: Miramax
Продолжительность: 02:34:27
Перевод: Авторский | Дмитрий Пучков
Субтитры: русские | Дмитрий Пучков
Навигация по главам: нет
Информация о файле:
Качество: BDRip - HEVC 1080p Rip by DD2D3
Формат: MKV
Видео: V_MPEGH/ISO/HEVC; 1920x816 (2.35:1); 4506 Kbps; 59,940 fps; 0,048 bpp
Аудио: русский; AC3; 640 Kbps; CBR; 6 ch ||
Доп. информация: нет

Общее
Уникальный идентификатор : 238469473480858276626135441491304091015 (0xB3678CCB7BA65686A16FD297CA0F8D87)
Полное имя : E:\Pulp Fiction (1994) BDRip - HEVC 1080p 10 bit 60 FPS.mkv
Формат : Matroska
Версия формата : Version 4
Размер файла : 5,56 Гбайт
Продолжительность : 2 ч. 34 м.
Общий поток : 5 151 Кбит/сек
Название фильма : Rip by from DD2D3
Дата кодирования : UTC 2020-06-01 08:13:17
Программа кодирования : mkvmerge v10.0.0 ('To Drown In You') 32bit
Библиотека кодирования : libebml v1.3.4 + libmatroska v1.4.5
Attachments : poster

Видео
Идентификатор : 1
Формат : HEVC
Формат/Информация : High Efficiency Video Coding
Профиль формата : Main [email protected]@Main
Идентификатор кодека : V_MPEGH/ISO/HEVC
Продолжительность : 2 ч. 34 м.
Битрейт : 4 507 Кбит/сек
Ширина : 1 920 пикселей
Высота : 816 пикселей
Соотношение сторон : 2,35:1
Режим частоты кадров : Постоянный
Частота кадров : 59,940 (60000/1001) кадров/сек
Цветовое пространство : YUV
Субдискретизация насыщенности : 4:2:0
Битовая глубина : 10 бит
Бит/(Пиксели*Кадры) : 0.048
Размер потока : 4,86 Гбайт (87%)
Библиотека кодирования : x265 2.3+33-0b7d54dbb71a87a0:[Windows][MSVC 1800][64 bit] 10bit: KG7x [x265.ru]
Настройки программы : cpuid=1173503 / frame-threads=2 / numa-pools=4 / wpp / no-pmode / no-pme / no-psnr / no-ssim / log-level=2 / input-csp=1 / input-res=1920x816 / interlace=0 / total-frames=555466 / level-idc=41 / high-tier=1 / uhd-bd=0 / ref=3 / no-allow-non-conformance / no-repeat-headers / annexb / no-aud / no-hrd / info / hash=0 / no-temporal-layers / open-gop / min-keyint=25 / keyint=250 / bframes=4 / b-adapt=2 / b-pyramid / bframe-bias=0 / rc-lookahead=20 / lookahead-slices=5 / scenecut=40 / no-intra-refresh / ctu=64 / min-cu-size=8 / no-rect / no-amp / max-tu-size=32 / tu-inter-depth=1 / tu-intra-depth=1 / limit-tu=0 / rdoq-level=0 / dynamic-rd=0.00 / no-ssim-rd / signhide / no-tskip / nr-intra=0 / nr-inter=0 / no-constrained-intra / strong-intra-smoothing / max-merge=2 / limit-refs=3 / no-limit-modes / me=1 / subme=2 / merange=57 / temporal-mvp / weightp / no-weightb / no-analyze-src-pics / deblock=0:0 / no-sao / no-sao-non-deblock / rd=3 / no-early-skip / no-rskip / no-fast-intra / no-tskip-fast / no-cu-lossless / no-b-intra / rdpenalty=0 / psy-rd=4.00 / psy-rdoq=0.00 / no-rd-refine / analysis-mode=0 / no-lossless / cbqpoffs=0 / crqpoffs=0 / rc=abr / bitrate=4500 / qcomp=0.60 / qpstep=1 / stats-write=0 / stats-read=2 / cplxblur=20.0 / qblur=0.5 / ipratio=1.10 / pbratio=1.00 / aq-mode=0 / aq-strength=0.00 / no-cutree / zone-count=0 / no-strict-cbr / qg-size=64 / rc-grain / qpmax=69 / qpmin=0 / sar=1 / overscan=0 / videoformat=5 / range=0 / colorprim=2 / transfer=2 / colormatrix=2 / chromaloc=0 / display-window=0 / max-cll=0,0 / min-luma=0 / max-luma=1023 / log2-max-poc-lsb=8 / vui-timing-info / vui-hrd-info / slices=1 / opt-qp-pps / opt-ref-list-length-pps / no-multi-pass-opt-rps / scenecut-bias=0.05 / no-opt-cu-delta-qp / no-aq-motion / no-hdr / no-hdr-opt / refine-level=5 / no-limit-sao
Default : Да
Forced : Нет

Аудио
Идентификатор : 2
Формат : AC-3
Формат/Информация : Audio Coding 3
Коммерческое название : Dolby Digital
Идентификатор кодека : A_AC3
Продолжительность : 2 ч. 34 м.
Вид битрейта : Постоянный
Битрейт : 640 Кбит/сек
Каналы : 6 каналов
Channel layout : L R C LFE Ls Rs
Частота : 48,0 КГц
Частота кадров : 31,250 кадров/сек (1536 SPF)
Метод сжатия : С потерями
Размер потока : 707 Мбайт (12%)
Заголовок : Авторский одноголосый Д. Пучков
Язык : Russian
Service kind : Complete Main
Default : Нет
Forced : Нет

Текст
Идентификатор : 3
Формат : UTF-8
Идентификатор кодека : S_TEXT/UTF8
Идентификатор кодека/Информация : UTF-8 Plain Text
Продолжительность : 2 ч. 29 м.
Битрейт : 129 бит/сек
Count of elements : 1877
Размер потока : 142 Кбайт (0%)
Заголовок : Пучков
Язык : Russian
Default : Нет
Forced : Нет




Скачать Криминальное чтиво через торрент https://st-kp-yandex-net.translate.goog/images/film_iphone/iphone360_342.jpg Скачать, смотреть онлайн Криминальное чтиво бесплантно в хорошем качестве Описание: Двое бандитов Винсент Вега и Джулс Винфилд ведут философские беседы в перерывах между разборками и решением проблем с должниками ... 10 10 10
Info! Золотая раздача, скачанное не засчитывается.
Торрент: Зарегистрирован [2022-07-14 15:59] · скачан: 58 раз
Статус: √ проверено
Размер: 5.56 GB
Как cкачать? Как скачать Криминальное чтиво через торрент | UTorrent

% Раздел Тема Автор DL S | L
T Фильмы с авторской озвучкой [ 4.69 GB ] Криминальное чтиво / Pulp Fiction | DUB + MVO | 720p, Авторский (Гоблин Дрю Скачать
2 | 0
Фильмы (Blu-ray, BD-Remux, HDDVD) [ 54.13 GB ] Криминальное чтиво / Pulp Fiction | DUB лицензия Miramax + VO Дмитрий "Гоблин" Пучков + VO Андрей Гаврилов + Sub rus + original eng | 1080p Зайчина Скачать
1 | 0
Фильмы (Blu-ray, BD-Remux, HDDVD) [ 44.05 GB ] Криминальное чтиво / Pulp Fiction | DUB+MVO | 1080p bober100 Скачать
1 | 0
Фильмы до 2000 г. [ 3.12 GB ] Криминальное чтиво / Pulp Fiction | MVO | BDRip killermax2013 Скачать
1 | 0
Фильмы [HD 720p, 1080p] (Хороший звук DUB, MVO) [ 15.91 GB ] Криминальное чтиво / Pulp Fiction | DUB | 1080p, Remastered _denis_100 Скачать
1 | 0
Видео для КПК и Смартфонов [ 750 MB ] Криминальное чтиво / Pulp Fiction | | DVDRip azagoth_666 Скачать
1 | 0
Фильмы до 2000 г. [ 2.18 GB ] Криминальное чтиво / Pulp Fiction | DUB | HDRip-AVC Phoenix Скачать
1 | 0

28-11-2019 20:33  


Отключить вcю реклaмy на сайте, в т.ч. и в плеере онлайн просмотра!

27-07-2022 06:40 Криминальное чтиво Скачать торрент  




    Дорогой пользователь! Огромная просьба, поблагодарите релизера, оцените раздачу и оставьте свои комментарий, если Вы скачали Криминальное чтиво через торрент бесплатно!!
    Комментировать посты могут только пользователи прошедшие не сложную регистрацию
    Показать сообщения:    


    Криминальное чтиво через торрент
    Скачать бесплатно Криминальное чтиво
    Криминальное чтиво скачать торрент
    Криминальное чтиво смотреть онлайн
    Cкачать фильм Криминальное чтиво бесплатно
    Криминальное чтиво скачать торрент в хорошем качестве
    Криминальное чтиво смотреть онлайн бесплатно в хорошем качестве
    Вы не можете начинать темы
    Вы не можете отвечать на сообщения
    Вы не можете редактировать свои сообщения
    Вы не можете удалять свои сообщения
    Вы не можете голосовать в опросах
    Вы не можете прикреплять файлы к сообщениям
    Вы можете скачивать файлы
    Криминальное чтиво / Pulp Fiction [1994, триллер, комедия, криминал, BDRip - HEVC 1080p 10 bit 60 FPS, AVO] смотреть онлайн, скачать торрент picoco.icu