Достать ножи: Стеклянная луковица

MVO

Добыча

Дубляж

Уэнсдэй

1 сезон

Тор

Дубляж

13 клиническая

1 сезон

Жестокая ночь

MVO

Одни из нас

1 сезон

Deluxe

pack

Рекомендуем

30

Пиратка

ВАЖНО

ВАЖНО

Ghostwire

Пиратка

jed

RePack

nioh2

RePack

RDR2

RePack

NEED FOR SPEED™ PAYBACK

RePack

скачать торрент

Кинопоиск HD

Острые козырьки 6 сезон

6 сезон

FAR CRY 6

RePack

скачать торрент

Лицензия

скачать торрент

MVO

1

1 сезон

скачать торрент

1 сезон

скачать торрент

Лицензия

  

Бэймакс! / Baymax! / Сезон: 1 / Серии: 1-6 из 6 (Дэн Абрахам, Марк Кеннеди, Лисса Трейман) [2022, Мультфильм, фантастика, боевик, комедия, приключения, семейный, WEB-DL 1080p] Дубляж [Red Head Sound]

Бэймакс! через торрент pb.wtf

Раздают: 1 [ 0 KB/s ]
Размер: 1.85 GB | Добавлен: 6 мес. назад | Торрент скачан:131 раз
Смотреть онлайн | Скачать | Поддержите нас   

15-07-2022 17:48 Бэймакс! Скачать торрент  

Бэймакс!
Baymax!

Год выпуска: 2022
Страна: США
Выпущено: Disney Television Animation, Walt Disney Animation Studios
Жанр: Мультфильм, фантастика, боевик, комедия, приключения, семейный
Продолжительность: 1 эпизод - 00:07:00-00:09:00 минут
Перевод: Дублированный | Red Head Sound
Субтитры: отсутствуют

Режиссер: Дэн Абрахам, Марк Кеннеди, Лисса Трейман

rating

В ролях: Скотт Эдсит, Райан Поттер, Дичен Лакмэн, Сара-Николь Роблз, Карлос Ферро, Энджел Паркер, Брэндон Скотт, Майя Рудольф, Эмили Курода, Лилимар

Описание: В этой истории речь пойдет о действительно очень интересной и необычной жизненной ситуации в которую попадает крайне симпатичный робот-медик по имени Бэймакс. Этот робот на самом деле очень полезен каждому человеку, ведь он в свое время сумел пройти через огромное количество самых различных испытаний и стал настоящим героем этого города.

Качество: WEB-DL 1080p
Формат: MKV

Видео: MPEG-4 AVC, 1920х1080, ~ 4 713 kb/s, 24.000 fps
Аудио: 48.0 kHz, AC3 Dolby Digital, 2/0 (L,R) ch, ~ 256 kbps
Что ещё за Red Head Sound? Еще одна пиратская студия?

Как десять лет назад смерть товарища превратила Мстителей в легендарную команду, потеря прокатной лицензии объединила профессиональных актеров дубляжа, режиссеров, звукорежиссеров и переводчиков, которые на протяжении долгих лет работали над тем, что вы так любите. Мы поняли, что будущее киновселенных для российского зрителя сейчас зависит полностью от нас и не хотим, чтоб вы потеряли голоса любимых персонажей!

Мы работали для вас, дублируя, монтируя и добиваясь совершенства, чтоб в кинотеатре вы могли прикоснуться к чуду волшебного мира кино. И мы продолжим делать своё дело, теперь — с доставкой на дом. Ведь это для нас — дело чести и труд, которым мы гордимся по праву!

Мир меняется каждый день, и мы здесь для того, чтобы у нашего зрителя и была возможность и дальше смотреть его любимые сериалы с качественным переводом и в безупречном дубляже. Настало время смелых решений, мы готовы к вызовам завтрашнего дня!

Red Head Sound — озвучка для тех, кто не согласен на меньшее.

скриншот  скриншот  скриншот  скриншот  

Общее
Уникальный идентификатор : 240754571774261256622992569738212239840 (0xB51FA4D6D0A74B0B80DC91A5AEE969E0)
Полное имя : D:Baymax!_1_сезон_RHS_[scarfilm.org]\Baymax.S01E01.WEB-DL.1080p_RHS_[scarfilm.org].mkv
Формат : Matroska
Версия формата : Version 4
Размер файла : 265 Мбайт
Продолжительность : 7 м. 26 с.
Режим общего битрейта : Переменный
Общий поток : 4 970 Кбит/сек
Дата кодирования : UTC 2022-07-11 12:43:56
Программа кодирования : mkvmerge v6.1.0 ('Old Devil') built on Mar 4 2013 09:10:42
Библиотека кодирования : libebml v1.3.0 + libmatroska v1.4.0

Видео
Идентификатор : 1
Формат : AVC
Формат/Информация : Advanced Video Codec
Профиль формата : [email protected]
Настройки формата : CABAC / 4 Ref Frames
Параметр CABAC формата : Да
Параметр RefFrames формата : 4 кадра
Идентификатор кодека : V_MPEG4/ISO/AVC
Продолжительность : 7 м. 26 с.
Вид битрейта : Переменный
Битрейт : 4 715 Кбит/сек
Максимальный битрейт : 12,7 Мбит/сек
Ширина : 1 920 пикселей
Высота : 1 080 пикселей
Соотношение сторон : 16:9
Режим частоты кадров : Постоянный
Частота кадров : 24,000 кадра/сек
Цветовое пространство : YUV
Субдискретизация насыщенности : 4:2:0
Битовая глубина : 8 бит
Тип развёртки : Прогрессивная
Бит/(Пиксели*Кадры) : 0.093
Размер потока : 246 Мбайт (93%)
Язык : English
Default : Да
Forced : Нет
Цветовой диапазон : Limited
Основные цвета : BT.709
Характеристики трансфера : BT.709
Коэффициенты матрицы : BT.709

Аудио
Идентификатор : 2
Формат : AC-3
Формат/Информация : Audio Coding 3
Коммерческое название : Dolby Digital
Идентификатор кодека : A_AC3
Продолжительность : 7 м. 26 с.
Вид битрейта : Постоянный
Битрейт : 256 Кбит/сек
Каналы : 2 канала
Channel layout : L R
Частота : 48,0 КГц
Частота кадров : 31,250 кадров/сек (1536 SPF)
Метод сжатия : С потерями
Размер потока : 13,6 Мбайт (5%)
Заголовок : Red Head Sound
Язык : Russian
Service kind : Complete Main
Default : Да
Forced : Нет

Когда раздача ведётся путём добавления новых серий, при каждом добавлении создётся новый торрент. Чтобы начать докачку новой серии, пользователям необходимо сделать следующее:
(1) остановить скачивание,
(2) удалить старый торрент у себя из клиента (старые серии удалять не надо),
(3) скачать новый торрент и запустить его у себя в клиенте вместо старого, при этом указать клиенту путь в старую папку, куда и должно происходить скачивание новых серий.
Ваш клиент при этом должен произвести хеширование (проверку) старой папки (если не производит сам - помогите ему сделать это), и будет докачивать только те серии, которых у вас ещё нет. Старые серии при этом не удаляются, а продолжают раздаваться!
Eсли вы уже удалили старые серии, то предотвратить повторную закачку старых серий можно, отжав галочку в соответсвующих местах при запуске нового торрента. По возможности, желательно не удалять старые серии как можно дольше, чтобы релизёр не столько продолжал раздавать старые серии, а смог сконцентрироваться на новых.




Скачать Бэймакс! через торрент https://i120.fastpic.org/big/2022/0703/17/4fe1ab662644e752c8878136496fc017.png Скачать, смотреть онлайн Бэймакс! бесплантно в хорошем качестве Описание: В этой истории речь пойдет о действительно очень интересной и необычной жизненной ситуации в которую попадает крайне симпатичный ... 10 10 8
Info! Золотая раздача, скачанное не засчитывается.
Торрент: Зарегистрирован [2022-07-15 17:48] · скачан: 131 раз
Статус: √ проверено
Размер: 1.85 GB
Как cкачать? Как скачать Бэймакс! через торрент | UTorrent

28-11-2019 20:33  


Отключить вcю реклaмy на сайте, в т.ч. и в плеере онлайн просмотра!

    Дорогой пользователь! Огромная просьба, поблагодарите релизера, оцените раздачу и оставьте свои комментарий, если Вы скачали Бэймакс! через торрент бесплатно!!
    Комментировать посты могут только пользователи прошедшие не сложную регистрацию
    Показать сообщения:    


    Бэймакс! через торрент
    Скачать бесплатно Бэймакс!
    Бэймакс! скачать торрент
    Бэймакс! смотреть онлайн
    Cкачать фильм Бэймакс! бесплатно
    Бэймакс! скачать торрент в хорошем качестве
    Бэймакс! смотреть онлайн бесплатно в хорошем качестве
    Вы не можете начинать темы
    Вы не можете отвечать на сообщения
    Вы не можете редактировать свои сообщения
    Вы не можете удалять свои сообщения
    Вы не можете голосовать в опросах
    Вы не можете прикреплять файлы к сообщениям
    Вы можете скачивать файлы
    Бэймакс! / Baymax! / Сезон: 1 / Серии: 1-6 из 6 [2022, Мультфильм, фантастика, боевик, комедия, приключения, семейный, WEB-DL 1080p] Дубляж [Red Head Sound] смотреть онлайн, скачать торрент picoco.icu