Достать ножи: Стеклянная луковица

MVO

Добыча

Дубляж

Уэнсдэй

1 сезон

Тор

Дубляж

13 клиническая

1 сезон

Жестокая ночь

MVO

Одни из нас

1 сезон

Deluxe

pack

Рекомендуем

30

Пиратка

ВАЖНО

ВАЖНО

Ghostwire

Пиратка

jed

RePack

nioh2

RePack

RDR2

RePack

NEED FOR SPEED™ PAYBACK

RePack

скачать торрент

Кинопоиск HD

Острые козырьки 6 сезон

6 сезон

FAR CRY 6

RePack

скачать торрент

Лицензия

скачать торрент

MVO

1

1 сезон

скачать торрент

1 сезон

скачать торрент

Лицензия

  

Чёрный телефон / The Black Phone (Скотт Дерриксон) [2021, Ужасы, триллер, BDRip 1080p] Дубляж [Пифагор] +2xMVO [Jaskier, TVShows] +AVO [Д. Есарев]

Чёрный телефон через торрент pb.wtf

Размер: 11.34 GB | Добавлен: 4 мес. 23 д. назад | Торрент скачан:114 раз
Смотреть онлайн | Скачать | Поддержите нас   

16-07-2022 03:22 Чёрный телефон Скачать торрент  

Чёрный телефон
The Black Phone

Год выпуска: 2021
Страна: США
Выпущено: Universal Pictures, Blumhouse Productions, Crooked Highway
Жанр: Ужасы, триллер
Продолжительность: 01:43:22
Перевод(ы):
#1: Дублированный | Пифагор
#2: Профессиональный многоголосый | Jaskier
#3: Профессиональный многоголосый | TVShows
#4: Авторский | Д. Есарев
Субтитры: Русские (Forced, 2 x Full), английские

Режиссер: Скотт Дерриксон

rating

В ролях: Мэйсон Темз, Мадлен Макгроу, Итэн Хоук, Джереми Дэвис, Э. Роджер Митчелл, Трой Радсил, Джеймс Рэнсон, Мигель Казарез Мора, Ребекка Кларк, Дж. Гэйвен Уайлд

Описание: Застенчивый, но умный 13-летний Финни Шоу похищен маньяком-убийцей и заперт в звуконепроницаемом подвале, откуда никто не услышит его крики о помощи. Но когда с неработающего телефона на стене раздается звонок, Финни обнаруживает, что может слышать голоса предыдущих жертв убийцы. Они хотят помочь мальчику избежать той ужасной участи, которая постигла их самих.

Качество: BDRip 1080p
Формат: MKV

Видео: MPEG-4 AVC, 1920x804, 13.7 Мbit/s, 23.976 fps
Аудио #01: 48 kHz, AC3, 5.1, 384 Kbps | Дублированный | Пифагор | RUS |
Аудио #02: 48 kHz, AC3, 5.1, 384 Kbps | Профессиональный многоголосый | Jaskier | RUS |
Аудио #03: 48 kHz, AC3, 2.0, 192 Kbps | Профессиональный многоголосый | TVShows | RUS |
Аудио #04: 48 kHz, AC3, 5.1, 448 Kbps | Авторский | Д. Есарев (uncensored) | RUS |
Аудио #05: 48 kHz, AC3, 5.1, 640 Kbps | Оригинал | ENG |
скриншот  скриншот  скриншот  скриншот  скриншот  скриншот  

General
Unique ID : 191940380003768882802472573980183257393 (0x90665F5EB11A72E7DE33650C1D726131)
Complete name : F:\Video\The.Black.Phone.2021.D.MVO.AVO.BDRip.1080p.seleZen.mkv
Format : Matroska
Format version : Version 4
File size : 11.3 GiB
Duration : 1 h 43 min
Overall bit rate : 15.7 Mb/s
Movie name : The Black Phone 2021 from seleZen
Encoded date : UTC 2022-09-09 09:17:54
Writing application : mkvmerge v59.0.0 ('Shining Star') 64-bit
Writing library : libebml v1.4.2 + libmatroska v1.6.4

Video
ID : 1
Format : AVC
Format/Info : Advanced Video Codec
Format profile : [email protected]
Format settings : CABAC / 5 Ref Frames
Format settings, CABAC : Yes
Format settings, Reference : 5 frames
Codec ID : V_MPEG4/ISO/AVC
Duration : 1 h 43 min
Bit rate : 13.7 Mb/s
Width : 1 920 pixels
Height : 804 pixels
Display aspect ratio : 2.40:1
Frame rate mode : Constant
Frame rate : 23.976 (24000/1001) FPS
Color space : YUV
Chroma subsampling : 4:2:0
Bit depth : 8 bits
Scan type : Progressive
Bits/(Pixel*Frame) : 0.369
Stream size : 9.85 GiB (87%)
Writing library : x264 core 164 r3085+55M seleZen t_mod_New [(8 & 10)[email protected] X86_64]
Encoding settings : cabac=1 / ref=5 / deblock=1:-2:-2 / analyse=0x3:0x133 / me=umh / subme=10 / psy=1 / fade_compensate=0.00 / psy_rd=1.01:0.03 / mixed_ref=1 / me_range=32 / chroma_me=1 / trellis=2 / 8x8dct=1 / cqm=0 / deadzone=21,11 / fast_pskip=0 / chroma_qp_offset=-3 / threads=25 / lookahead_threads=4 / sliced_threads=0 / nr=0 / decimate=0 / interlaced=0 / bluray_compat=0 / constrained_intra=0 / fgo=0 / bframes=9 / b_pyramid=2 / b_adapt=2 / b_bias=0 / direct=3 / weightb=1 / open_gop=0 / weightp=2 / keyint=240 / keyint_min=23 / scenecut=40 / intra_refresh=0 / rc_lookahead=60 / rc=2pass / mbtree=0 / bitrate=13666 / ratetol=1.0 / qcomp=0.60 / qpmin=0:0:0 / qpmax=51:51:51 / qpstep=4 / cplxblur=20.0 / qblur=0.5 / vbv_maxrate=50000 / vbv_bufsize=62500 / nal_hrd=none / filler=0 / ip_ratio=1.40 / pb_ratio=1.30 / aq=3:0.80 / aq-sensitivity=10.00 / aq-factor=1.00:1.00:1.00 / aq2=0 / aq3=0
Language : English
Default : Yes
Forced : No

Audio #1
ID : 2
Format : AC-3
Format/Info : Audio Coding 3
Commercial name : Dolby Digital
Codec ID : A_AC3
Duration : 1 h 43 min
Bit rate mode : Constant
Bit rate : 384 kb/s
Channel(s) : 6 channels
Channel layout : L R C LFE Ls Rs
Sampling rate : 48.0 kHz
Frame rate : 31.250 FPS (1536 SPF)
Compression mode : Lossy
Stream size : 284 MiB (2%)
Title : Дубляж
Language : Russian
Service kind : Complete Main
Default : Yes
Forced : Yes

Audio #2
ID : 3
Format : AC-3
Format/Info : Audio Coding 3
Commercial name : Dolby Digital
Codec ID : A_AC3
Duration : 1 h 43 min
Bit rate mode : Constant
Bit rate : 384 kb/s
Channel(s) : 6 channels
Channel layout : L R C LFE Ls Rs
Sampling rate : 48.0 kHz
Frame rate : 31.250 FPS (1536 SPF)
Compression mode : Lossy
Stream size : 284 MiB (2%)
Title : MVO [Jaskier]
Language : Russian
Service kind : Complete Main
Default : No
Forced : No

Audio #3
ID : 4
Format : AC-3
Format/Info : Audio Coding 3
Commercial name : Dolby Digital
Codec ID : A_AC3
Duration : 1 h 43 min
Bit rate mode : Constant
Bit rate : 192 kb/s
Channel(s) : 2 channels
Channel layout : L R
Sampling rate : 48.0 kHz
Frame rate : 31.250 FPS (1536 SPF)
Compression mode : Lossy
Stream size : 142 MiB (1%)
Title : MVO [TVShows]
Language : Russian
Service kind : Complete Main
Default : No
Forced : No

Audio #4
ID : 5
Format : AC-3
Format/Info : Audio Coding 3
Commercial name : Dolby Digital
Codec ID : A_AC3
Duration : 1 h 43 min
Bit rate mode : Constant
Bit rate : 448 kb/s
Channel(s) : 6 channels
Channel layout : L R C LFE Ls Rs
Sampling rate : 48.0 kHz
Frame rate : 31.250 FPS (1536 SPF)
Compression mode : Lossy
Stream size : 331 MiB (3%)
Title : AVO [Yesarev]
Language : Russian
Service kind : Complete Main
Default : No
Forced : No

Audio #5
ID : 6
Format : AC-3
Format/Info : Audio Coding 3
Commercial name : Dolby Digital
Codec ID : A_AC3
Duration : 1 h 43 min
Bit rate mode : Constant
Bit rate : 640 kb/s
Channel(s) : 6 channels
Channel layout : L R C LFE Ls Rs
Sampling rate : 48.0 kHz
Frame rate : 31.250 FPS (1536 SPF)
Compression mode : Lossy
Stream size : 473 MiB (4%)
Title : Original
Language : English
Service kind : Complete Main
Default : No
Forced : No

Text #1
ID : 7
Format : UTF-8
Codec ID : S_TEXT/UTF8
Codec ID/Info : UTF-8 Plain Text
Duration : 22 min 47 s
Bit rate : 1 b/s
Frame rate : 0.004 FPS
Count of elements : 5
Stream size : 204 Bytes (0%)
Title : Forced
Language : Russian
Default : Yes
Forced : Yes

Text #2
ID : 8
Format : UTF-8
Codec ID : S_TEXT/UTF8
Codec ID/Info : UTF-8 Plain Text
Duration : 1 h 42 min
Bit rate : 54 b/s
Frame rate : 0.147 FPS
Count of elements : 905
Stream size : 41.0 KiB (0%)
Title : Full v.1
Language : Russian
Default : No
Forced : No

Text #3
ID : 9
Format : UTF-8
Codec ID : S_TEXT/UTF8
Codec ID/Info : UTF-8 Plain Text
Duration : 1 h 37 min
Bit rate : 59 b/s
Frame rate : 0.173 FPS
Count of elements : 1010
Stream size : 42.4 KiB (0%)
Title : Full v.2 [FOCS]
Language : Russian
Default : No
Forced : No

Text #4
ID : 10
Format : UTF-8
Codec ID : S_TEXT/UTF8
Codec ID/Info : UTF-8 Plain Text
Duration : 1 h 42 min
Bit rate : 38 b/s
Frame rate : 0.188 FPS
Count of elements : 1157
Stream size : 28.9 KiB (0%)
Title : Full
Language : English
Default : No
Forced : No

Text #5
ID : 11
Format : UTF-8
Codec ID : S_TEXT/UTF8
Codec ID/Info : UTF-8 Plain Text
Duration : 1 h 43 min
Bit rate : 46 b/s
Frame rate : 0.232 FPS
Count of elements : 1439
Stream size : 35.5 KiB (0%)
Title : SDH
Language : English
Default : No
Forced : No

Menu
00:00:00.000 : Chapter 01
00:05:03.136 : Chapter 02
00:09:25.690 : Chapter 03
00:14:46.427 : Chapter 04
00:19:30.961 : Chapter 05
00:25:43.292 : Chapter 06
00:30:46.511 : Chapter 07
00:38:15.418 : Chapter 08
00:43:32.777 : Chapter 09
00:48:07.885 : Chapter 10
00:53:09.061 : Chapter 11
00:57:52.427 : Chapter 12
01:01:15.755 : Chapter 13
01:05:50.155 : Chapter 14
01:10:55.042 : Chapter 15
01:16:38.469 : Chapter 16
01:23:21.580 : Chapter 17
01:27:18.608 : Chapter 18
01:32:20.201 : Chapter 19
01:37:58.206 : Chapter 20




Скачать Чёрный телефон через торрент https://i120.fastpic.org/big/2022/0717/0b/70c407184bf26414c59da68880a2190b.jpg Скачать, смотреть онлайн Чёрный телефон бесплантно в хорошем качестве Описание: Застенчивый, но умный 13-летний Финни Шоу похищен маньяком-убийцей и заперт в звуконепроницаемом подвале, откуда никто не услышит ... 10 10 19
Торрент: Зарегистрирован [2022-09-09 12:25] · скачан: 114 раз
Статус: √ проверено
Размер: 11.34 GB
Как cкачать? Как скачать Чёрный телефон через торрент | UTorrent

% Раздел Тема Автор DL S | L
Фильмы 2021 [DVDrip, WEB-DLRip, HDrip] (DUB, MVO) [ 1.46 GB ] Чёрный телефон / The Black Phone | Пифагор | BDRip bober100 Скачать
4 | 0
Фильмы [HD 720p, 1080p] (Хороший звук DUB, MVO) [ 6.12 GB ] Чёрный телефон / The Black Phone | Jaskier | 720p bober100 Скачать
2 | 0
Фильмы 2021 [DVDrip, WEB-DLRip, HDrip] (DUB, MVO) [ 3.11 GB ] Чёрный телефон / The Black Phone | Jaskier | BDRip-AVC Lithuania Скачать
2 | 0
Фильмы 2021 [DVDrip, WEB-DLRip, HDrip] (DUB, MVO) [ 1.77 GB ] Чёрный телефон / The Black Phone | Пифагор | BDRip-AVC bober100 Скачать
1 | 0
Фильмы 2021 [DVDrip, WEB-DLRip, HDrip] (DUB, MVO) [ 749 MB ] Чёрный телефон / The Black Phone | Jaskier | BDRip bober100 Скачать
2 | 0
Фильмы (Blu-ray, BD-Remux, HDDVD) [ 28.63 GB ] Чёрный телефон / The Black Phone | Jaskier | BD Remux 1080p bober100 Скачать
1 | 0
Ultra HD (UHD: 2K, 4K, 8K) [ 19.08 GB ] Чёрный телефон / The Black Phone | Jaskier | 2160p bober100 Скачать
4 | 0



Последний раз редактировалось: bober100 (2022-09-09 12:27), всего редактировалось 9 раз(а)

28-11-2019 20:33  


Отключить вcю реклaмy на сайте, в т.ч. и в плеере онлайн просмотра!

16-07-2022 12:44 Чёрный телефон Скачать торрент  

Шикарный фильм .



16-07-2022 15:57 Чёрный телефон Скачать торрент  

Чушь полнейшая, если из логики исходить. Чёрт катается по району на чёрном грузовике, привозит детей, а не кто не видел, где цука дома в 5 метрах друг от друга. Полицейские видимо из какой-то пародии взяты, чувак разговаривает с призраками, как со своими друзьями без тени недоверия и страха... Бред, а не фильм.



16-07-2022 20:23 Чёрный телефон Скачать торрент  

Очень похоже, будто навеяно произведениями Стивена Кинга.



18-07-2022 05:00 Чёрный телефон Скачать торрент  

керпе писал(а):

Очень похоже, будто навеяно произведениями Стивена Кинга.

По рассказу сына Стивена Кинга фильм снят.



18-07-2022 06:51 Чёрный телефон Скачать торрент  

PANDAST писал(а):

Чушь полнейшая, если из логики исходить. Чёрт катается по району на чёрном грузовике, привозит детей, а не кто не видел, где цука дома в 5 метрах друг от друга. Полицейские видимо из какой-то пародии взяты, чувак разговаривает с призраками, как со своими друзьями без тени недоверия и страха... Бред, а не фильм.

Чел ты серьёзно думал что мистический триллер должен сниматься в стиле реализм ? Нелепые претензии какие-то совершенно ...



18-07-2022 08:54 Чёрный телефон Скачать торрент  

trubadur писал(а):

керпе писал(а):

Очень похоже, будто навеяно произведениями Стивена Кинга.

По рассказу сына Стивена Кинга фильм снят.

О как !Качаем,спс



19-07-2022 01:17 Чёрный телефон Скачать торрент  

отличный рейтинг для жанра, глянем, спасибо! надеюсь, без повесточки)



19-07-2022 04:40 Чёрный телефон Скачать торрент  

trubadur писал(а):

керпе писал(а):

Очень похоже, будто навеяно произведениями Стивена Кинга.

По рассказу сына Стивена Кинга фильм снят.

Неожиданно и круто, благодарю за инфу.



19-07-2022 20:42 Чёрный телефон Скачать торрент  

Неплохой ужастик,чувствуется батина кровь сыграла свою роль).Актёры ,правда,играют не очень.Если во время просмотра поменять дорожку звука на 5,1 ,то детишки будут весь фильм друг дружку матюками крыть па чём зря)-Что неестественно как то смотрится.А вот со стереодорожкой ,которая по умолчанию идёт-всё норм ,но 2 канала на звук тока






Последний раз редактировалось: pirotehnik771 (2022-08-11 21:26), всего редактировалось 1 раз

09-08-2022 15:50 Чёрный телефон Скачать торрент  

Трейлер фильма всё проспойлерил. смотреть не интересно.



10-09-2022 09:44 Чёрный телефон Скачать торрент  

фильм говно



    Дорогой пользователь! Огромная просьба, поблагодарите релизера, оцените раздачу и оставьте свои комментарий, если Вы скачали Чёрный телефон через торрент бесплатно!!
    Комментировать посты могут только пользователи прошедшие не сложную регистрацию
    Показать сообщения:    


    Чёрный телефон через торрент
    Скачать бесплатно Чёрный телефон
    Чёрный телефон скачать торрент
    Чёрный телефон смотреть онлайн
    Cкачать фильм Чёрный телефон бесплатно
    Чёрный телефон скачать торрент в хорошем качестве
    Чёрный телефон смотреть онлайн бесплатно в хорошем качестве
    Вы не можете начинать темы
    Вы не можете отвечать на сообщения
    Вы не можете редактировать свои сообщения
    Вы не можете удалять свои сообщения
    Вы не можете голосовать в опросах
    Вы не можете прикреплять файлы к сообщениям
    Вы можете скачивать файлы
    Чёрный телефон / The Black Phone [2021, Ужасы, триллер, BDRip 1080p] Дубляж [Пифагор] +2xMVO [Jaskier, TVShows] +AVO [Д. Есарев] смотреть онлайн, скачать торрент picoco.icu