Всегда рабочее зеркало без VPN и Proxy просто перед .vidak.icu напиши любое слово или цифру, Пример http://n83t.vidak.icu

MVO

MVO

1 сезон

1

1 сезон

iTunes

1 сезон

13

1 сезон

Deluxe

pack

Рекомендуем

Repack

30

ВАЖНО

RePack

MK11

RePack

jed

RePack

fifa19

RePack

RDR2

RePack

NEED FOR SPEED™ PAYBACK

Кинопоиск HD

6 сезон

 Острые козырьки 6 сезон

Все сериалы

все сериалы на PB.wtf

RePack

FAR CRY 5
  
Magnet ссылка

Опасные связи / Les Liaisons Dangereuses (Рэйчел Суисса) [2022, Драма, мелодрама, WEB-DLRip-AVC] [DUB] [Пифагор] от ExKinoRay pb.wtf

Опасные связи через торрент pb.wtf

Раздают: 5 [ 32 KB/s ]
Размер: 2.09 GB | Добавлен: 26 д. назад | Торрент скачан:79 раз
Смотреть онлайн Опасные связи | Скачать    Ребята, помогите собрать деньги на оплату серверов!!!

16-07-2022 12:06 Опасные связи Скачать торрент  


Опасные связи / Les Liaisons Dangereuses
Информация о фильме:
Название: Опасные связи
Оригинальное название: Les Liaisons Dangereuses
Год выхода: 2022
Жанр: Драма, мелодрама
Режиссер: Рэйчел Суисса
В ролях: Симон Рероль, Паола Локателли, Элла Пеллегрини, Элоиза Жанжо, Мао Цзиньсюань, Оскар Лесаж, Николя Берно, Алексис Михалик, Эльза Дюшес, Виктория Грэйс

Описание: Отличницу Селен переводят в школу в Биаррице. Она влюбляется в плохиша Тристана, не подозревая о жестоком пари, которое он заключил с королевой соцсетей Ванессой.



Страна: Франция
Студия: Autopilot Entertainment
Продолжительность: 01:49:00
Перевод: Дублированный - Пифагор по заказу Netflix



Информация о файле:
Кодек: AVC
Формат: MKV
Качество: WEB-DLRip-AVC
Видео: MPEG-4 AVC, 1024x428, 24.000 fps, 1850 kbps
Аудио RU: AC3, 6 ch, 48 kHz, 448 kbps
Аудио FRA: AC3, 6 ch, 48 kHz, 448 kbps
Субтитры: Русские (Forced, Full), украинские, английские



x264 info: frame I:1427 Avg QP:15.15 size: 63121
x264 info: frame P:35454 Avg QP:17.89 size: 20545
x264 info: frame B:120092 Avg QP:19.78 size: 5756
General
Unique ID : 86526425570399097836342736045403441584 (0x411862266A82AECAB65F8510CA2E89B0)
Complete name : D:uTorrentРипы wolf1245Les Liaisons Dangereuses.2022.DUB.PIFAGOR.x264.WEB-DLRip-AVC.[wolf1245.ExKinoRay].mkv
Format : Matroska
Format version : Version 4
File size : 2.09 GiB
Duration : 1 h 49 min
Overall bit rate : 2 745 kb/s
Movie name : Les Liaisons Dangereuses.2022.DUB.PIFAGOR.x264.WEB-DLRip-AVC.[wolf1245.ExKinoRay]
Encoded date : UTC 2022-07-16 11:52:43
Writing application : mkvmerge v69.0.0 ('Day And Age') 64-bit
Writing library : libebml v1.4.2 + libmatroska v1.6.4
Video
ID : 1
Format : AVC
Format/Info : Advanced Video Codec
Format profile : [email protected]
Format settings : CABAC / 10 Ref Frames
Format settings, CABAC : Yes
Format settings, Reference frames : 10 frames
Codec ID : V_MPEG4/ISO/AVC
Duration : 1 h 49 min
Bit rate : 1 850 kb/s
Width : 1 024 pixels
Height : 428 pixels
Display aspect ratio : 2.40:1
Frame rate mode : Constant
Frame rate : 24.000 FPS
Color space : YUV
Chroma subsampling : 4:2:0
Bit depth : 8 bits
Scan type : Progressive
Bits/(Pixel*Frame) : 0.176
Stream size : 1.41 GiB (67%)
Title : -=[wolf1245.ExKinoRay]=-
Writing library : x264 core 163 r3060 5db6aa6
Encoding settings : cabac=1 / ref=10 / deblock=1:-2:-2 / analyse=0x3:0x133 / me=umh / subme=9 / psy=1 / psy_rd=0.98:0.15 / mixed_ref=1 / me_range=32 / chroma_me=1 / trellis=2 / 8x8dct=1 / cqm=0 / deadzone=22,11 / fast_pskip=1 / chroma_qp_offset=-3 / threads=10 / lookahead_threads=2 / sliced_threads=0 / nr=0 / decimate=0 / interlaced=0 / bluray_compat=0 / constrained_intra=0 / bframes=10 / b_pyramid=2 / b_adapt=2 / b_bias=0 / direct=3 / weightb=1 / open_gop=0 / weightp=2 / keyint=240 / keyint_min=24 / scenecut=40 / intra_refresh=0 / rc_lookahead=100 / rc=2pass / mbtree=0 / bitrate=1850 / ratetol=1.0 / qcomp=0.70 / qpmin=0 / qpmax=69 / qpstep=4 / cplxblur=20.0 / qblur=0.5 / vbv_maxrate=50000 / vbv_bufsize=62500 / nal_hrd=none / filler=0 / ip_ratio=1.35 / pb_ratio=1.25 / aq=3:0.80
Language : French
Default : Yes
Forced : No
Audio #1
ID : 2
Format : AC-3
Format/Info : Audio Coding 3
Commercial name : Dolby Digital
Codec ID : A_AC3
Duration : 1 h 49 min
Bit rate mode : Constant
Bit rate : 448 kb/s
Channel(s) : 6 channels
Channel layout : L R C LFE Ls Rs
Sampling rate : 48.0 kHz
Frame rate : 31.250 FPS (1536 SPF)
Compression mode : Lossy
Stream size : 349 MiB (16%)
Title : DUB | PIFAGOR | RUS
Language : Russian
Service kind : Complete Main
Default : Yes
Forced : No
Audio #2
ID : 3
Format : AC-3
Format/Info : Audio Coding 3
Commercial name : Dolby Digital
Codec ID : A_AC3
Duration : 1 h 49 min
Bit rate mode : Constant
Bit rate : 448 kb/s
Channel(s) : 6 channels
Channel layout : L R C LFE Ls Rs
Sampling rate : 48.0 kHz
Frame rate : 31.250 FPS (1536 SPF)
Compression mode : Lossy
Stream size : 349 MiB (16%)
Title : Original | FRA
Language : French
Service kind : Complete Main
Default : No
Forced : No
Text #1
ID : 4
Format : UTF-8
Codec ID : S_TEXT/UTF8
Codec ID/Info : UTF-8 Plain Text
Duration : 1 h 46 min
Bit rate : 8 b/s
Count of elements : 119
Stream size : 6.83 KiB (0%)
Title : Forced
Language : Russian
Default : Yes
Forced : No
Text #2
ID : 5
Format : UTF-8
Codec ID : S_TEXT/UTF8
Codec ID/Info : UTF-8 Plain Text
Duration : 1 h 47 min
Bit rate : 84 b/s
Count of elements : 1316
Stream size : 66.4 KiB (0%)
Title : Full
Language : Russian
Default : No
Forced : No
Text #3
ID : 6
Format : UTF-8
Codec ID : S_TEXT/UTF8
Codec ID/Info : UTF-8 Plain Text
Duration : 1 h 47 min
Bit rate : 81 b/s
Count of elements : 1284
Stream size : 63.7 KiB (0%)
Title : Full
Language : Ukrainian
Default : No
Forced : No
Text #4
ID : 7
Format : UTF-8
Codec ID : S_TEXT/UTF8
Codec ID/Info : UTF-8 Plain Text
Duration : 1 h 47 min
Bit rate : 92 b/s
Count of elements : 1764
Stream size : 72.4 KiB (0%)
Title : SDH
Language : English
Default : No
Forced : No
Релиз от:
Автор релиза:
pb.wtf



Скачать Опасные связи через торрент http://i120.fastpic.org/big/2022/0714/9b/a5426858b5e2660c4c294a9995c72e9b.jpg Скачать, смотреть онлайн Опасные связи бесплантно в хорошем качестве Описание: Отличницу Селен переводят в школу в Биаррице. Она влюбляется в плохиша Тристана, не подозревая о жестоком пари, которое он ... 10 10 3
Торрент: Зарегистрирован [2022-07-16 12:06] · скачан: 79 раз
Статус: √ проверено
Размер: 2.09 GB
Как cкачать? Как скачать Опасные связи через торрент | UTorrent

28-11-2019 20:33  

Отключить вcю реклaмy на сайте

16-07-2022 13:38 Опасные связи Скачать торрент  

Прекрасно! Сравним с "Жестокими играми" 1999 года.pb.wtf



16-07-2022 16:07 Опасные связи Скачать торрент  

Тоже, что пришло первое на ум Жестокие игры. Тот фильм пересматривал несколько раз... Правда и был моложе)))pb.wtf



16-07-2022 16:31 Опасные связи Скачать торрент  

KomyakPatriot писал(а):

Тоже, что пришло первое на ум Жестокие игры. Тот фильм пересматривал несколько раз... Правда и был моложе)))

Ну и как этот ?pb.wtf



16-07-2022 19:03 Опасные связи Скачать торрент  

korotkij писал(а):

Ну и как этот ?

Хорош! Если "Жестокие игры" (1999) нравятся - то и этот наверняка зайдет. Та же тема на современый лад в нынешнее время.
Странно, что на IMDB рейтинг такой низкий....

KomyakPatriot писал(а):

Тоже, что пришло первое на ум Жестокие игры. Тот фильм пересматривал несколько раз... Правда и был моложе)))

Ага, я тоже. Тоже несколько раз смотрел. Один из моих любимых фильмов.

P. S. Отдельный респект создателям за "Dancer" Alyona Alyona на вечеринке у Ванессы.pb.wtf



    Дорогой пользователь! Огромная просьба, поблагодарите релизера, оцените раздачу и оставьте свои комментарий, если Вы скачали Опасные связи через торрент бесплатно!
    Комментировать посты могут только пользователи прошедшие не сложную регистрацию
    Показать сообщения:    

    Опасные связи через торрент
    Скачать бесплатно Опасные связи
    Опасные связи скачать торрент
    Опасные связи смотреть онлайн
    Cкачать фильм Опасные связи бесплатно
    Опасные связи скачать торрент в хорошем качестве
    Опасные связи смотреть онлайн бесплатно в хорошем качестве


    Вы можете начинать темы
    Вы можете отвечать на сообщения
    Вы не можете редактировать свои сообщения
    Вы не можете удалять свои сообщения
    Вы не можете голосовать в опросах
    Вы не можете прикреплять файлы к сообщениям
    Вы можете скачивать файлы