Всегда рабочее зеркало без VPN и Proxy просто перед .vidak.icu напиши любое слово или цифру, Пример http://4gng.vidak.icu

MVO

MVO

1 сезон

1

1 сезон

iTunes

1 сезон

13

1 сезон

Deluxe

pack

Рекомендуем

Repack

30

ВАЖНО

RePack

MK11

RePack

jed

RePack

fifa19

RePack

RDR2

RePack

NEED FOR SPEED™ PAYBACK

Кинопоиск HD

6 сезон

 Острые козырьки 6 сезон

Все сериалы

все сериалы на PB.wtf

RePack

FAR CRY 5
  
Magnet ссылка

Провалы в памяти / Роман с кукушкой / Senior Moment (Джорджо Серафини) [2021, драма, мелодрама, комедия, WEB-DLRip-AVC] DUB от ExKinoRay pb.wtf

Провалы в памяти через торрент pb.wtf

Размер: 1.86 GB | Добавлен: 21 д. назад | Торрент скачан:14 раз
Смотреть онлайн Провалы в памяти | Скачать    Ребята, помогите собрать деньги на оплату серверов!!!

17-07-2022 09:11 Провалы в памяти Скачать торрент  


Провалы в памяти / Роман с кукушкой / Senior Moment
Информация о фильме:
Название: Провалы в памяти / Роман с кукушкой
Оригинальное название: Senior Moment
Год выхода: 2021
Жанр: драма, мелодрама, комедия
Режиссер: Джорджо Серафини
В ролях: Кристофер Ллойд, Уильям Шетнер, Джин Смарт, Катрина Боуден, Эсай Моралес, Рута Ли, Дэвид Шатроу, Вэлари Петтифорд, Дон Макманус, Майя Стоян, Бет Литтлфорд, Джо Эстевес, Дениз ДюБарри, Кэй Баллард, Карлос Миранда

Описание: Виктор Мартин — отставной пилот ВВС и вечный холостяк, проживающий свои лучшие дни в путешествиях на серебристом порше в компании лучшего друга, ювелира на пенсии, Сала. Однажды во время очередной автопрогулки, товарищи замечают на дороге другого любителя гонок – Пабло Торреса. Он соглашается на несколько шуточных соревнований, в результате которых Виктора останавливает полиция и лишает его прав и любимого порше. Поездка на общественном транспорте приводит к знакомству с привлекательной женщиной по имени Кэролайн. Между ними сразу возникает связь, однако очевидные различия не позволяют отношениям развиваться. Сможет ли Кэролайн помочь Виктору пережить расставание с автомобилем? Или, быть может, благодаря ей он обнаружит в себе новые увлечения?



Страна: США
Студия: Goff Productions
Продолжительность: 01:32:10
Перевод: Профессиональный (дублированный)



Информация о файле:
Кодек: AVC
Формат: MKV
Качество: WEB-DLRip-AVC
Видео: MPEG-4 AVC, 1024x430, 23.976 fps, 2050 kb/s
Аудио RU: AC3, 6 ch, 48 kHz, 384 kbps
Аудио EN: AC3, 6 ch, 48 kHz, 448 kbps
Субтитры: Английские



x264 info: frame I:1150 Avg QP:17.14 size: 75089
x264 info: frame P:32004 Avg QP:19.76 size: 21012
x264 info: frame B:99443 Avg QP:20.54 size: 6609
General
Unique ID : 266656520000398376411804273039061527432 (0xC89C2D7C02743459683854A0623BAB88)
Complete name : D:uTorrentРипы wolf1245Senior Moment.2021.DUB.X264.WEB-DLRip-AVC.[wolf1245.ExKinoRay].mkv
Format : Matroska
Format version : Version 4
File size : 1.86 GiB
Duration : 1 h 32 min
Overall bit rate : 2 882 kb/s
Movie name : Senior Moment.2021.DUB.X264.WEB-DLRip-AVC.[wolf1245.ExKinoRay]
Encoded date : UTC 2022-07-17 08:53:28
Writing application : mkvmerge v69.0.0 ('Day And Age') 64-bit
Writing library : libebml v1.4.2 + libmatroska v1.6.4
Video
ID : 1
Format : AVC
Format/Info : Advanced Video Codec
Format profile : [email protected]
Format settings : CABAC / 10 Ref Frames
Format settings, CABAC : Yes
Format settings, Reference frames : 10 frames
Codec ID : V_MPEG4/ISO/AVC
Duration : 1 h 32 min
Bit rate : 2 050 kb/s
Width : 1 024 pixels
Height : 430 pixels
Display aspect ratio : 2.40:1
Frame rate mode : Constant
Frame rate : 23.976 (24000/1001) FPS
Color space : YUV
Chroma subsampling : 4:2:0
Bit depth : 8 bits
Scan type : Progressive
Bits/(Pixel*Frame) : 0.194
Stream size : 1.32 GiB (71%)
Title : -=[wolf1245.ExKinoRay]=-
Writing library : x264 core 163 r3060 5db6aa6
Encoding settings : cabac=1 / ref=10 / deblock=1:-2:-1 / analyse=0x3:0x133 / me=umh / subme=9 / psy=1 / psy_rd=0.98:0.15 / mixed_ref=1 / me_range=32 / chroma_me=1 / trellis=2 / 8x8dct=1 / cqm=0 / deadzone=22,11 / fast_pskip=1 / chroma_qp_offset=-3 / threads=10 / lookahead_threads=2 / sliced_threads=0 / nr=0 / decimate=0 / interlaced=0 / bluray_compat=0 / constrained_intra=0 / bframes=10 / b_pyramid=2 / b_adapt=2 / b_bias=0 / direct=3 / weightb=1 / open_gop=0 / weightp=2 / keyint=240 / keyint_min=24 / scenecut=40 / intra_refresh=0 / rc_lookahead=150 / rc=2pass / mbtree=0 / bitrate=2050 / ratetol=1.0 / qcomp=0.70 / qpmin=0 / qpmax=69 / qpstep=4 / cplxblur=20.0 / qblur=0.5 / vbv_maxrate=50000 / vbv_bufsize=62500 / nal_hrd=none / filler=0 / ip_ratio=1.35 / pb_ratio=1.25 / aq=3:1.00
Language : English
Default : Yes
Forced : No
Color range : Limited
Color primaries : BT.709
Transfer characteristics : BT.709
Matrix coefficients : BT.709
Audio #1
ID : 2
Format : AC-3
Format/Info : Audio Coding 3
Commercial name : Dolby Digital
Codec ID : A_AC3
Duration : 1 h 32 min
Bit rate mode : Constant
Bit rate : 384 kb/s
Channel(s) : 6 channels
Channel layout : L R C LFE Ls Rs
Sampling rate : 48.0 kHz
Frame rate : 31.250 FPS (1536 SPF)
Compression mode : Lossy
Stream size : 253 MiB (13%)
Title : DUB | RUS
Language : Russian
Service kind : Complete Main
Default : Yes
Forced : No
Audio #2
ID : 3
Format : AC-3
Format/Info : Audio Coding 3
Commercial name : Dolby Digital
Codec ID : A_AC3
Duration : 1 h 32 min
Bit rate mode : Constant
Bit rate : 448 kb/s
Channel(s) : 6 channels
Channel layout : L R C LFE Ls Rs
Sampling rate : 48.0 kHz
Frame rate : 31.250 FPS (1536 SPF)
Compression mode : Lossy
Stream size : 295 MiB (16%)
Title : Original | ENG
Language : English
Service kind : Complete Main
Default : No
Forced : No
Text
ID : 4
Format : UTF-8
Codec ID : S_TEXT/UTF8
Codec ID/Info : UTF-8 Plain Text
Duration : 1 h 27 min
Bit rate : 55 b/s
Count of elements : 1422
Stream size : 35.5 KiB (0%)
Language : English
Default : No
Forced : No
Релиз от:
Автор релиза:
pb.wtf



Скачать Провалы в памяти через торрент http://i4.imageban.ru/out/2022/07/15/0cba8b8c26c256818e900fefaad57f12.jpg Скачать, смотреть онлайн Провалы в памяти бесплантно в хорошем качестве Описание: Виктор Мартин — отставной пилот ВВС и вечный холостяк, проживающий свои лучшие дни в путешествиях на серебристом порше в ... 10 10 1
Торрент: Зарегистрирован [2022-07-17 09:11] · скачан: 14 раз
Статус: √ проверено
Размер: 1.86 GB
Как cкачать? Как скачать Провалы в памяти через торрент | UTorrent

28-11-2019 20:33  

Отключить вcю реклaмy на сайте

    Дорогой пользователь! Огромная просьба, поблагодарите релизера, оцените раздачу и оставьте свои комментарий, если Вы скачали Провалы в памяти через торрент бесплатно!
    Комментировать посты могут только пользователи прошедшие не сложную регистрацию
    Показать сообщения:    

    Провалы в памяти через торрент
    Скачать бесплатно Провалы в памяти
    Провалы в памяти скачать торрент
    Провалы в памяти смотреть онлайн
    Cкачать фильм Провалы в памяти бесплатно
    Провалы в памяти скачать торрент в хорошем качестве
    Провалы в памяти смотреть онлайн бесплатно в хорошем качестве


    Вы не можете начинать темы
    Вы не можете отвечать на сообщения
    Вы не можете редактировать свои сообщения
    Вы не можете удалять свои сообщения
    Вы не можете голосовать в опросах
    Вы не можете прикреплять файлы к сообщениям
    Вы можете скачивать файлы