Всегда рабочее зеркало без VPN и Proxy просто перед .vidak.icu напиши любое слово или цифру, Пример http://lfh6.vidak.icu

Лицензия

MVO

1 сезон

1

1 сезон

iTunes

1 сезон

13

1 сезон

Deluxe

pack

Рекомендуем

Repack

30

ВАЖНО

RePack

MK11

RePack

jed

RePack

fifa19

RePack

RDR2

RePack

NEED FOR SPEED™ PAYBACK

Кинопоиск HD

6 сезон

 Острые козырьки 6 сезон

Все сериалы

все сериалы на PB.wtf

RePack

FAR CRY 5
  
Magnet ссылка

Крутые яйца 2 / Un rescate de huevitos (Габриэль Рива Паласио Алатристе, Родольфо Рива Паласио Алатристе) [2021 г., Мультфильм, фэнтези, комедия, приключения, WEB-DLRip 720p / 60 FPS, Дубляж] от R.G. HD-Films pb.wtf

Крутые яйца 2 через торрент pb.wtf

Раздают: 4 [ 0 KB/s ]
Размер: 3.92 GB | Добавлен: 1 мес. назад | Торрент скачан:56 раз
Смотреть онлайн Крутые яйца 2 | Скачать    Ребята, помогите собрать деньги на оплату серверов!!!

17-07-2022 11:25 Крутые яйца 2 Скачать торрент  

Крутые яйца 2 / Un rescate de huevitos
Год выпуска: 2021
Страна: Мексика
Жанр: Мультфильм, фэнтези, комедия, приключения
Продолжительность: 01:28:27
Перевод: Дубляж

Режиссер: Габриэль Рива Паласио Алатристе, Родольфо Рива Паласио Алатристе

Премьера в мире: 12 августа 2021

rating

В ролях: Бруно Бичир, Майте Перрони Беорлеги, Анхелика Вале, Карлос Эспехель, Майра Рохас, Оливер Флорес, Дионе Рива Палачио Сантакруз, Ариэль Мирамонтес, Эктор Ли, Хуан Фрезе

Описание: Тото и его друзья должны спасти своих птенцов, которых забрали на гурманское мероприятие в Африку.

Качество: WEB-DLRip 720p / 60 FPS
Формат: MKV
Видео кодек: H.264
Аудио кодек: AC3
Видео: x264, 1280 x 720 ( 16:9 ), 5951 kbps, 60,000 fps, ( 0.108 bpp)
Аудио#1: Русский, AC-3, 48.0 KHz, 6 ch, 384 Kbps DUB ( Мосфильм-Мастер )
Релиз от: Автор рипа: slaventi-69
x264 [info]: profile High, level 4.1
x264 [info]: frame I:1563 Avg QP:13.31 size: 91347
x264 [info]: frame P:76249 Avg QP:15.55 size: 25450
x264 [info]: frame B:240626 Avg QP:18.55 size: 7749
x264 [info]: consecutive B-frames: 1.6% 3.9% 11.3% 24.0% 37.8% 21.5%


Общее
Уникальный идентификатор : 166114987739687874640366778348626526422 (0x7CF8953995F1B2C17E3A2C210C7040D6)
Полное имя : G:\60 FPS\Un.rescate.de.huevitos.(2021).WEB-DLRip.720p.(60 Fps).mkv
Формат : Matroska
Версия формата : Version 4
Размер файла : 3,92 Гбайт
Продолжительность : 1 ч. 28 м.
Общий поток : 6339 Кбит/сек
Название фильма : Крутые яйца 2 / Un rescate de huevitos (2021) WEB-DLRip 720p (60 Fps)
Дата кодирования : UTC 2022-07-17 11:01:04
Программа кодирования : mkvmerge v25.0.0 ('Prog Noir') 64-bit
Библиотека кодирования : libebml v1.3.6 + libmatroska v1.4.9

Видео
Идентификатор : 1
Формат : AVC
Формат/Информация : Advanced Video Codec
Профиль формата : [email protected]
Настройки формата : CABAC / 9 Ref Frames
Параметр CABAC формата : Да
Параметр RefFrames формата : 9 кадров
Идентификатор кодека : V_MPEG4/ISO/AVC
Продолжительность : 1 ч. 28 м.
Битрейт : 5951 Кбит/сек
Ширина : 1280 пикселей
Высота : 720 пикселей
Соотношение сторон : 16:9
Режим частоты кадров : Постоянный
Частота кадров : 60,000 кадров/сек
Цветовое пространство : YUV
Субдискретизация насыщенности : 4:2:0
Битовая глубина : 8 бит
Тип развёртки : Прогрессивная
Бит/(Пиксели*Кадры) : 0.108
Размер потока : 3,68 Гбайт (94%)
Заголовок : slaventi-69 ( R.G. HD-Films | 60 fps )
Библиотека кодирования : x264 core 130 r2273 b3065e6
Настройки программы : cabac=1 / ref=9 / deblock=1:-3:-3 / analyse=0x3:0x133 / me=umh / subme=9 / psy=1 / psy_rd=1.00:0.00 / mixed_ref=1 / me_range=32 / chroma_me=1 / trellis=2 / 8x8dct=1 / cqm=0 / deadzone=21,11 / fast_pskip=0 / chroma_qp_offset=-2 / threads=8 / lookahead_threads=4 / sliced_threads=0 / nr=0 / decimate=1 / interlaced=0 / bluray_compat=0 / constrained_intra=0 / bframes=5 / b_pyramid=2 / b_adapt=2 / b_bias=0 / direct=1 / weightb=1 / open_gop=0 / weightp=2 / keyint=600 / keyint_min=23 / scenecut=40 / intra_refresh=0 / rc=crf / mbtree=0 / crf=16.0 / qcomp=0.60 / qpmin=0 / qpmax=69 / qpstep=4 / ip_ratio=1.40 / pb_ratio=1.30 / aq=1:1.00
Default : Да
Forced : Нет

Аудио
Идентификатор : 2
Формат : AC-3
Формат/Информация : Audio Coding 3
Коммерческое название : Dolby Digital
Идентификатор кодека : A_AC3
Продолжительность : 1 ч. 28 м.
Вид битрейта : Постоянный
Битрейт : 384 Кбит/сек
Каналы : 6 каналов
Channel layout : L R C LFE Ls Rs
Частота : 48,0 КГц
Частота кадров : 31,250 кадров/сек (1536 SPF)
Битовая глубина : 16 бит
Метод сжатия : С потерями
Размер потока : 243 Мбайт (6%)
Заголовок : DUB ( Мосфильм-Мастер )
Язык : Russian
ServiceKind/String : Complete Main
Default : Да
Forced : Нет

Просьба к переливающим на другие сайты, в оформлении указывайте пожалуйста авторство группы R.G. HD-Films pb.wtf



Скачать Крутые яйца 2 через торрент https://i120.fastpic.org/big/2022/0709/d9/feb5cb69862a985efc9f8da0e64ce9d9.jpg Скачать, смотреть онлайн Крутые яйца 2 бесплантно в хорошем качестве Описание: Тото и его друзья должны спасти своих птенцов, которых забрали на гурманское мероприятие в ... 10 10 1
Торрент: Зарегистрирован [2022-07-17 11:25] · скачан: 56 раз
Статус: √ проверено
Размер: 3.92 GB
Как cкачать? Как скачать Крутые яйца 2 через торрент | UTorrent

28-11-2019 20:33  

Отключить вcю реклaмy на сайте

    Дорогой пользователь! Огромная просьба, поблагодарите релизера, оцените раздачу и оставьте свои комментарий, если Вы скачали Крутые яйца 2 через торрент бесплатно!
    Комментировать посты могут только пользователи прошедшие не сложную регистрацию
    Показать сообщения:    

    Крутые яйца 2 через торрент
    Скачать бесплатно Крутые яйца 2
    Крутые яйца 2 скачать торрент
    Крутые яйца 2 смотреть онлайн
    Cкачать фильм Крутые яйца 2 бесплатно
    Крутые яйца 2 скачать торрент в хорошем качестве
    Крутые яйца 2 смотреть онлайн бесплатно в хорошем качестве


    Вы не можете начинать темы
    Вы не можете отвечать на сообщения
    Вы не можете редактировать свои сообщения
    Вы не можете удалять свои сообщения
    Вы не можете голосовать в опросах
    Вы не можете прикреплять файлы к сообщениям
    Вы можете скачивать файлы