Достать ножи: Стеклянная луковица

MVO

Добыча

Дубляж

Уэнсдэй

1 сезон

Тор

Дубляж

13 клиническая

1 сезон

Жестокая ночь

MVO

Одни из нас

1 сезон

Deluxe

pack

Рекомендуем

30

Пиратка

ВАЖНО

ВАЖНО

Ghostwire

Пиратка

jed

RePack

nioh2

RePack

RDR2

RePack

NEED FOR SPEED™ PAYBACK

RePack

скачать торрент

Кинопоиск HD

Острые козырьки 6 сезон

6 сезон

FAR CRY 6

RePack

скачать торрент

Лицензия

скачать торрент

MVO

1

1 сезон

скачать торрент

1 сезон

скачать торрент

Лицензия

  

Борьба со льдом / Against the Ice (Петер Флинт) [2022, Приключения, драма, исторический, WEB-DLRip - HEVC 1080p 10 bit 60 FPS, Дубляж]

Борьба со льдом через торрент pb.wtf

Раздают: 1 [ 0 KB/s ]
Размер: 3.11 GB | Добавлен: 6 мес. назад | Торрент скачан:90 раз
Смотреть онлайн | Скачать | Поддержите нас   

18-07-2022 11:19 Борьба со льдом Скачать торрент  

Against the Ice
«Survive the Search. Survive Each Other»
Информация Описание:
Название: Борьба со льдом
Оригинальное название: Against the Ice
Год выхода: 2022
Жанр: биография, драма, история
Режиссер: Петер Флинт
В ролях: Николай Костер-Вальдау, Джо Коул, Чарльз Дэнс, Хейда Рид, Эдвард Спелирс, Диармед Мёрта, Гисли Орн Гардарссон, Сэм Редфорд, Ник Джеймисон, Фрэнки Уилсон, Торстейнн Бахман
Описание: 1909 г. Два отважных исследователя отправляются на поиски следов датской экспедиции, участники которой исследовали Гренландию.


Страна: Исландия, Дания
Студия: Ill Kippers Productions, RVK Studios
Продолжительность: 01:43:30
Перевод: Дублированный | Пифагор
Субтитры: русские | Пифагор
Навигация по главам: нет
Информация о файле:
Качество: WEB-DLRip - HEVC 1080p Rip by DD2D3
Формат: MKV
Видео: V_MPEGH/ISO/HEVC; 1920x808 (2.40:1); 3574 Kbps; 60 fps; 0,038 bpp
Аудио: русский; AC3+; 640 Kbps; CBR; 6 ch ||
Доп. информация: нет

Общее
Уникальный идентификатор : 189600437789904193878949234943983700945 (0x8EA3B74FC38F2AF39C65CC72BC214BD1)
Полное имя : E:\Against the Ice (2022) WEB-DLRip - HEVC 1080p 10 bit 60 FPS.mkv
Формат : Matroska
Версия формата : Version 2
Размер файла : 3,11 Гбайт
Продолжительность : 1 ч. 43 м.
Общий поток : 4 300 Кбит/сек
Название фильма : Rip by from DD2D3
Дата кодирования : UTC 2022-07-18 10:55:08
Программа кодирования : mkvmerge v6.9.1 ('Blue Panther') 32bit built on Apr 18 2014 18:15:44
Библиотека кодирования : libebml v1.3.0 + libmatroska v1.4.1
Attachments : poster

Видео
Идентификатор : 1
Формат : HEVC
Формат/Информация : High Efficiency Video Coding
Профиль формата : Main [email protected]@Main
Идентификатор кодека : V_MPEGH/ISO/HEVC
Продолжительность : 1 ч. 43 м.
Битрейт : 3 574 Кбит/сек
Ширина : 1 920 пикселей
Высота : 808 пикселей
Высота оригинала : 804 пикселя
Соотношение сторон : 2,40:1
Соотношение сторон в оригинале : 2,40:1
Режим частоты кадров : Постоянный
Частота кадров : 60,000 кадров/сек
Цветовое пространство : YUV
Субдискретизация насыщенности : 4:2:0
Битовая глубина : 10 бит
Бит/(Пиксели*Кадры) : 0.038
Размер потока : 2,58 Гбайт (83%)
Default : Да
Forced : Нет
Цветовой диапазон : Limited
Основные цвета : BT.709
Характеристики трансфера : BT.709
Коэффициенты матрицы : BT.709

Аудио
Идентификатор : 2
Формат : E-AC-3
Формат/Информация : Enhanced AC-3
Коммерческое название : Dolby Digital Plus
Идентификатор кодека : A_EAC3
Продолжительность : 1 ч. 43 м.
Вид битрейта : Постоянный
Битрейт : 640 Кбит/сек
Каналы : 6 каналов
Channel layout : L R C LFE Ls Rs
Частота : 48,0 КГц
Частота кадров : 31,250 кадров/сек (1536 SPF)
Метод сжатия : С потерями
Размер потока : 474 Мбайт (15%)
Заголовок : Дублированный | Netflix (Пифагор)
Язык : Russian
Service kind : Complete Main
Default : Да
Forced : Да
Statistics Tags Issue : mkvmerge v63.0.0 ('Everything') 64-bit 2022-03-02 17:49:34 / mkvmerge v6.9.1 ('Blue Panther') 32bit built on Apr 18 2014 18:15:44 2022-07-18 10:55:08
FromStats_BitRate : 640000
FromStats_Duration : 01:43:30.848000000
FromStats_FrameCount : 194089
FromStats_StreamSize : 496867840

Текст
Идентификатор : 3
Формат : UTF-8
Идентификатор кодека : S_TEXT/UTF8
Идентификатор кодека/Информация : UTF-8 Plain Text
Заголовок : Full
Язык : Russian
Default : Нет
Forced : Нет
Statistics Tags Issue : mkvmerge v63.0.0 ('Everything') 64-bit 2022-03-02 17:49:34 / mkvmerge v6.9.1 ('Blue Panther') 32bit built on Apr 18 2014 18:15:44 2022-07-18 10:55:08
FromStats_BitRate : 57
FromStats_Duration : 01:41:24.458000000
FromStats_FrameCount : 988
FromStats_StreamSize : 43439




Скачать Борьба со льдом через торрент https://a.picpig.ru/2022/07/18/Against-the-Ice-2022-WEB-DLRip---HEVC-1080p-10-bit-60-FPS.jpg Скачать, смотреть онлайн Борьба со льдом бесплантно в хорошем качестве Описание:Название: Борьба со льдомОригинальное название: Against the IceГод выхода: 2022Жанр: биография, драма, историяРежиссер: Петер ... 10 10 7
Торрент: Зарегистрирован [2022-07-18 11:19] · скачан: 90 раз
Статус: √ проверено
Размер: 3.11 GB
Как cкачать? Как скачать Борьба со льдом через торрент | UTorrent

% Раздел Тема Автор DL S | L
Фильмы (WEB-DL 720p, 1080p) [ 3.24 GB ] Борьба со льдом / Against the Ice | Пифагор | 1080p bober100 Скачать
25 | 0
Фильмы 2022-2023 [DVDrip, WEB-DLRip, HDrip] (DUB, MVO) [ 752 MB ] Борьба со льдом / Against the Ice | Пифагор | DLRip bober100 Скачать
1 | 0
Фильмы 2022-2023 [DVDrip, WEB-DLRip, HDrip] (DUB, MVO) [ 1.52 GB ] Борьба со льдом / Against the Ice | DUB | DLRip-AVC Lithuania Скачать
1 | 0
Фильмы (WEB-DL 720p, 1080p) [ 1.45 GB ] Борьба со льдом / Against the Ice | Пифагор | 720p bober100 Скачать
1 | 0
Фильмы 2022-2023 [DVDrip, WEB-DLRip, HDrip] (DUB, MVO) [ 1.46 GB ] Борьба со льдом / Against the Ice | Пифагор | DLRip bober100 Скачать
1 | 0

28-11-2019 20:33  


Отключить вcю реклaмy на сайте, в т.ч. и в плеере онлайн просмотра!

    Дорогой пользователь! Огромная просьба, поблагодарите релизера, оцените раздачу и оставьте свои комментарий, если Вы скачали Борьба со льдом через торрент бесплатно!!
    Комментировать посты могут только пользователи прошедшие не сложную регистрацию
    Показать сообщения:    


    Борьба со льдом через торрент
    Скачать бесплатно Борьба со льдом
    Борьба со льдом скачать торрент
    Борьба со льдом смотреть онлайн
    Cкачать фильм Борьба со льдом бесплатно
    Борьба со льдом скачать торрент в хорошем качестве
    Борьба со льдом смотреть онлайн бесплатно в хорошем качестве
    Вы не можете начинать темы
    Вы не можете отвечать на сообщения
    Вы не можете редактировать свои сообщения
    Вы не можете удалять свои сообщения
    Вы не можете голосовать в опросах
    Вы не можете прикреплять файлы к сообщениям
    Вы можете скачивать файлы
    Борьба со льдом / Against the Ice [2022, Приключения, драма, исторический, WEB-DLRip - HEVC 1080p 10 bit 60 FPS, Дубляж] смотреть онлайн, скачать торрент picoco.icu