Доктор Стрэндж

Лицензия

Добыча

Дубляж

Дом дракона

1 сезон

Тор

Дубляж

В эфире

Дубляж

Там, где раки поют

MVO

Властелин колец

1 сезон

Deluxe

pack

Рекомендуем

30

Пиратка

ВАЖНО

ВАЖНО

Ghostwire

Пиратка

jed

RePack

nioh2

RePack

RDR2

RePack

NEED FOR SPEED™ PAYBACK

RePack

скачать торрент

Кинопоиск HD

Острые козырьки 6 сезон

6 сезон

FAR CRY 6

RePack

скачать торрент

Лицензия

скачать торрент

MVO

1

1 сезон

скачать торрент

1 сезон

скачать торрент

Лицензия

  

Люся / Сезон: 1 / Серии: 1-8 из 8 + Фильм о фильме (Иван И. Твердовский) [2022, Драма, комедия, WEBRip-AVC]

Люся через торрент pb.wtf

Размер: 2.94 GB | Добавлен: 3 мес. 26 д. назад | Торрент скачан:33 раза
Смотреть онлайн | Скачать   

19-07-2022 18:17 Люся Скачать торрент  

Люся
Год выпуска: 2022
Страна: Россия
Производство: Good Story Media
Жанр: Драма, комедия
Продолжительность: ~ 00:25:00
Перевод: Не требуется
Субтитры: отсутствуют

Режиссер: Иван И. Твердовский

rating

В ролях: Данила Козловский, Дарья Савельева, Кристина Асмус, Максим Виторган, Ян Цапник, Григорий Верник, Александра Бабаскина, Таисия Битюкова, Иван Макаревич, Дарья Блохина, Анна Слю, Евгений Гомоной, Антон Юрьев, Наталья Павленкова, Алина Ходжеванова, Ирина Вилкова, Алексей Тахаров, Артём Борзовский, Роман Борзовский, Даниил Киселёв, Всеволод Володин, Алексей Личутин, Тамир Сикоев, Анна Шепелева, Сергей Степин, Надежда Подъяпольская, Артем Курганский, Александр Маврин, Александр Десятов

Описание: Сеня, создатель умной колонки «Люся», экспериментирует с алгоритмами, обсуждая с Люсей личные темы, семью, людей вокруг, и старается сделать ее максимально человечной. Люся быстро становится чем-то гораздо большим, чем просто колонка - она оказывается единственной, кому Сеня может доверить свои переживания, проблемы и размышления. Только она знает обо всех проблемах, с которыми столкнулись дочки Сени в школе, и только с ней он делится переживаниями об отношениях с женой. Умная колонка помогает мужчине пережить публичное унижение на глазах всей семьи, найти сына депутата, устроившего это унижение, и справиться с последствиями непоправимого поступка, который совершил Сеня.

Качество: WEBRip-AVC
Формат: MKV

Видео: MPEG-4 AVC, ~ 1600 Кбит/с, 1024x464, 25 кадр/с
Аудио: 48.0 kHz, AC3 Dolby Digital, 2/0 (L,R) ch, ~ 192 kbps

General
Unique ID : 240227423278072201299891807303678136210 (0xB4BA1E6960773915B152061BCD418F92)
Complete name : F:\Люся.(2022).WEBRip.(AVC).Files-x\01.Люся.(2022).WEBRip.(AVC).by.Серый1779.Files-x.mkv
Format : Matroska
Format version : Version 2
File size : 432 MiB
Duration : 33 min 39 s
Overall bit rate : 1 793 kb/s
Encoded date : UTC 2022-07-14 00:51:35
Writing application : mkvmerge v7.8.0 ('River Man') 32bit built on Apr 3 2015 12:11:22
Writing library : libebml v1.3.1 + libmatroska v1.4.2

Video
ID : 1
Format : AVC
Format/Info : Advanced Video Codec
Format profile : [email protected]
Format settings : CABAC / 9 Ref Frames
Format settings, CABAC : Yes
Format settings, RefFrames : 9 frames
Codec ID : V_MPEG4/ISO/AVC
Duration : 33 min 39 s
Bit rate : 1 600 kb/s
Width : 1 024 pixels
Height : 464 pixels
Display aspect ratio : 2.2:1
Frame rate mode : Constant
Frame rate : 25.000 FPS
Color space : YUV
Chroma subsampling : 4:2:0
Bit depth : 8 bits
Scan type : Progressive
Bits/(Pixel*Frame) : 0.135
Stream size : 377 MiB (87%)
Writing library : x264 core 146 r2538 121396c
Encoding settings : cabac=1 / ref=9 / deblock=1:-2:-1 / analyse=0x3:0x133 / me=umh / subme=9 / psy=1 / psy_rd=1.00:0.15 / mixed_ref=1 / me_range=32 / chroma_me=1 / trellis=2 / 8x8dct=1 / cqm=0 / deadzone=21,11 / fast_pskip=0 / chroma_qp_offset=-3 / threads=18 / lookahead_threads=3 / sliced_threads=0 / nr=0 / decimate=1 / interlaced=0 / bluray_compat=0 / constrained_intra=0 / bframes=9 / b_pyramid=2 / b_adapt=2 / b_bias=0 / direct=1 / weightb=1 / open_gop=0 / weightp=2 / keyint=250 / keyint_min=25 / scenecut=40 / intra_refresh=0 / rc=2pass / mbtree=0 / bitrate=1600 / ratetol=1.0 / qcomp=0.60 / qpmin=0 / qpmax=69 / qpstep=4 / cplxblur=20.0 / qblur=0.5 / ip_ratio=1.40 / pb_ratio=1.30 / aq=2:1.00
Default : Yes
Forced : No
Color range : Limited
Color primaries : BT.709
Transfer characteristics : BT.709
Matrix coefficients : BT.709

Audio
ID : 2
Format : AC-3
Format/Info : Audio Coding 3
Format settings, Endianness : Big
Codec ID : A_AC3
Duration : 33 min 39 s
Bit rate mode : Constant
Bit rate : 192 kb/s
Channel(s) : 2 channels
Channel positions : Front: L R
Sampling rate : 48.0 kHz
Frame rate : 31.250 FPS (1536 SPF)
Bit depth : 16 bits
Compression mode : Lossy
Stream size : 46.2 MiB (11%)
Service kind : Complete Main
Default : Yes
Forced : No

Внимание! Раздача ведётся путём добавления новых серий; при каждом добавлении создаётся новый торрент.
Чтобы начать докачку новой серии, пользователям необходимо сделать следующее:
1. Остановить скачивание;
2. Удалить старый торрент у себя из клиента (старые серии удалять не надо);
3. Скачать новый торрент и запустить его у себя в клиенте вместо старого, при этом указать клиенту путь в старую папку куда и должно происходить скачивание новых серий. Ваш клиент при этом должен произвести хеширование (проверку) старой папки и будет докачивать только те серии, которых у вас ещё нет. Старые серии при этом не удаляются, а продолжают раздаваться! Eсли вы уже удалили старые серии, то предотвратить повторную закачку старых серий можно, отжав галочку в соответствующих местах при запуске нового торрента.



Скачать Люся через торрент https://i120.fastpic.org/big/2022/0714/d0/9709db7b20bd28728c260045e7ed7ad0.jpg Скачать, смотреть онлайн Люся бесплантно в хорошем качестве Описание: Сеня, создатель умной колонки «Люся», экспериментирует с алгоритмами, обсуждая с Люсей личные темы, семью, людей вокруг, и ... 6.5 10 10
Торрент: Зарегистрирован [2022-08-07 12:13] · скачан: 33 раз
Статус: √ проверено
Размер: 2.94 GB
Как cкачать? Как скачать Люся через торрент | UTorrent

% Раздел Тема Автор DL S | L
Сериалы ТНТ [ 7.54 GB ] Люся / Сезон: 1 / Серии: 1-8 из 8 + Фильм о фильме | | 1080p bober100 Скачать
2 | 0
Сериалы ТНТ [ 5.21 GB ] Люся / Сезон: 1 / Серии: 1-8 из 8 + Фильм о фильме | | 720p bober100 Скачать
2 | 0
Сериалы ТНТ [ 3.26 GB ] Люся / Сезон: 1 / Серии: 1-8 из 8 + Фильм о фильме | | WEBRip bober100 Скачать
2 | 0

28-11-2019 20:33  


Отключить вcю реклaмy на сайте, в т.ч. и в плеере онлайн просмотра!

    Дорогой пользователь! Огромная просьба, поблагодарите релизера, оцените раздачу и оставьте свои комментарий, если Вы скачали Люся через торрент бесплатно!!
    Комментировать посты могут только пользователи прошедшие не сложную регистрацию
    Показать сообщения:    


    Люся через торрент
    Скачать бесплатно Люся
    Люся скачать торрент
    Люся смотреть онлайн
    Cкачать фильм Люся бесплатно
    Люся скачать торрент в хорошем качестве
    Люся смотреть онлайн бесплатно в хорошем качестве
    Вы не можете начинать темы
    Вы не можете отвечать на сообщения
    Вы не можете редактировать свои сообщения
    Вы не можете удалять свои сообщения
    Вы не можете голосовать в опросах
    Вы не можете прикреплять файлы к сообщениям
    Вы можете скачивать файлы
    Люся / Сезон: 1 / Серии: 1-8 из 8 + Фильм о фильме [2022, Драма, комедия, WEBRip-AVC] смотреть онлайн, скачать торрент picoco.icu