Доктор Стрэндж

Лицензия

Добыча

Дубляж

Уэнсдэй

1 сезон

Тор

Дубляж

В эфире

Дубляж

Там, где раки поют

MVO

Властелин колец

1 сезон

Deluxe

pack

Рекомендуем

30

Пиратка

ВАЖНО

ВАЖНО

Ghostwire

Пиратка

jed

RePack

nioh2

RePack

RDR2

RePack

NEED FOR SPEED™ PAYBACK

RePack

скачать торрент

Кинопоиск HD

Острые козырьки 6 сезон

6 сезон

FAR CRY 6

RePack

скачать торрент

Лицензия

скачать торрент

MVO

1

1 сезон

скачать торрент

1 сезон

скачать торрент

Лицензия

  

Пропавшая / Last Seen Alive (Брайан Гудман) [2022, Боевик, триллер, UHD WEB-DL-HEVC 2160p] Дубляж [Кинопоиск HD] +MVO [TVShows] +AVO [Д. Есарев]

Пропавшая через торрент pb.wtf

Раздают: 2 [ 0 KB/s ]
Размер: 14.88 GB | Добавлен: 4 мес. 17 д. назад | Торрент скачан:193 раза
Смотреть онлайн | Скачать   

20-07-2022 03:03 Пропавшая Скачать торрент  

Пропавшая
Last Seen Alive

Год выпуска: 2022
Страна: США
Студия: G-BASE, Marc Frydman Productions, Perfection Hunter Productions, Voltage Pictures
Жанр: Боевик, триллер
Продолжительность: 01:35:01
Перевод:
#1: Дублированный | Кинопоиск HD
#2: Профессиональный многоголосый | TVShows
#3: Авторский | Д. Есарев
Субтитры: Aнглийские

Режиссер: Брайан Гудман

rating

В ролях: Джерард Батлер, Джейми Александер, Расселл Хорнсби, Алекс Алифиренко мл., Эмили Бринкс, Билли Бёрнс, Дэни Детте, Робин Флетчер, Дэвид Гурул, Брайс Энтони Хеллер, Синди Хоган, Альфонсо А’Кен-Атен Джексон, Дэвид Каллауэй, Чип Лэйн, Саманта Лоулесс

Описание: Уилл Спэнн везет жену к ее родителям — Лиза заявила, что ей нужен перерыв в отношениях. Но во время остановки на заправке женщина странным образом бесследно исчезает. Уилл поднимает на уши местную полицию и вместе с родителями жены пытается найти ее. Однако со временем подозрение падает на него самого.

Качество: UHD WEB-DL-HEVC 2160p
Формат: MKV

Видео: 3828x1908 at 23.976 fps, MPEG-H HEVC SDR, ~ 20500 kbps avg
Аудио #01: 48 kHz, AC3, 5.1, 448 Kbps | Дублированный | Кинопоиск HD | RUS |
Аудио #02: 48 kHz, E-AC3, 5.1, 448 Kbps | Дублированный | Кинопоиск HD | RUS |
Аудио #03: 48 kHz, AC3, 2.0, 192 Kbps | Профессиональный многоголосый | TVShows | RUS |
Аудио #04: 48 kHz, AC3, 5.1, 384 Kbps | Авторский | Д. Есарев | RUS |
Аудио #05: 48 kHz, AC3, 5.1, 384 Kbps | Оригинал | ENG |
скриншот  скриншот  скриншот  скриншот  скриншот  

General
Unique ID : 126059412881823553327394765314514029095 (0x5ED628E8EBDDD5A30A818896FC9D0A27)
Complete name : D:Video1Last.Seen.Alive.2022.D.MVO.A.WEB-DL.2160p.SDR.seleZen.mkv
Format : Matroska
Format version : Version 4
File size : 14.9 GiB
Duration : 1 h 35 min
Overall bit rate : 22.4 Mb/s
Movie name : Last Seen Alive 2022 from seleZen
Encoded date : UTC 2022-07-19 22:27:06
Writing application : mkvmerge v59.0.0 ('Shining Star') 64-bit
Writing library : libebml v1.4.2 + libmatroska v1.6.4

Video
ID : 1
Format : HEVC
Format/Info : High Efficiency Video Coding
Format profile : Main [email protected]@High
Codec ID : V_MPEGH/ISO/HEVC
Duration : 1 h 35 min
Bit rate : 20.5 Mb/s
Width : 3 828 pixels
Height : 1 908 pixels
Display aspect ratio : 2.006
Frame rate mode : Constant
Frame rate : 23.976 FPS
Color space : YUV
Chroma subsampling : 4:2:0
Bit depth : 10 bits
Bits/(Pixel*Frame) : 0.117
Stream size : 13.6 GiB (92%)
Language : English
Default : Yes
Forced : No
Color range : Limited
Color primaries : BT.709
Transfer characteristics : BT.709
Matrix coefficients : BT.709

Audio #1
ID : 2
Format : AC-3
Format/Info : Audio Coding 3
Commercial name : Dolby Digital
Codec ID : A_AC3
Duration : 1 h 35 min
Bit rate mode : Constant
Bit rate : 448 kb/s
Channel(s) : 6 channels
Channel layout : L R C LFE Ls Rs
Sampling rate : 48.0 kHz
Frame rate : 31.250 FPS (1536 SPF)
Compression mode : Lossy
Stream size : 305 MiB (2%)
Title : Дубляж
Language : Russian
Service kind : Complete Main
Default : Yes
Forced : Yes

Audio #2
ID : 3
Format : E-AC-3
Format/Info : Enhanced AC-3
Commercial name : Dolby Digital Plus
Codec ID : A_EAC3
Duration : 1 h 35 min
Bit rate mode : Constant
Bit rate : 448 kb/s
Channel(s) : 6 channels
Channel layout : L R C LFE Ls Rs
Sampling rate : 48.0 kHz
Frame rate : 31.250 FPS (1536 SPF)
Compression mode : Lossy
Stream size : 305 MiB (2%)
Title : Дубляж
Language : Russian
Service kind : Complete Main
Default : No
Forced : No

Audio #3
ID : 4
Format : AC-3
Format/Info : Audio Coding 3
Commercial name : Dolby Digital
Codec ID : A_AC3
Duration : 1 h 35 min
Bit rate mode : Constant
Bit rate : 192 kb/s
Channel(s) : 2 channels
Channel layout : L R
Sampling rate : 48.0 kHz
Frame rate : 31.250 FPS (1536 SPF)
Compression mode : Lossy
Stream size : 131 MiB (1%)
Title : MVO [TVShows]
Language : Russian
Service kind : Complete Main
Default : No
Forced : No

Audio #4
ID : 5
Format : AC-3
Format/Info : Audio Coding 3
Commercial name : Dolby Digital
Codec ID : A_AC3
Duration : 1 h 35 min
Bit rate mode : Constant
Bit rate : 384 kb/s
Channel(s) : 6 channels
Channel layout : L R C LFE Ls Rs
Sampling rate : 48.0 kHz
Frame rate : 31.250 FPS (1536 SPF)
Compression mode : Lossy
Stream size : 261 MiB (2%)
Title : AVO [Yesarev]
Language : Russian
Service kind : Complete Main
Default : No
Forced : No

Audio #5
ID : 6
Format : AC-3
Format/Info : Audio Coding 3
Commercial name : Dolby Digital
Codec ID : A_AC3
Duration : 1 h 35 min
Bit rate mode : Constant
Bit rate : 384 kb/s
Channel(s) : 6 channels
Channel layout : L R C LFE Ls Rs
Sampling rate : 48.0 kHz
Frame rate : 31.250 FPS (1536 SPF)
Compression mode : Lossy
Stream size : 261 MiB (2%)
Title : Original
Language : English
Service kind : Complete Main
Default : No
Forced : No

Text #1
ID : 7
Format : UTF-8
Codec ID : S_TEXT/UTF8
Codec ID/Info : UTF-8 Plain Text
Duration : 1 h 28 min
Bit rate : 57 b/s
Frame rate : 0.235 FPS
Count of elements : 1242
Stream size : 37.0 KiB (0%)
Title : Full
Language : English
Default : No
Forced : No

Text #2
ID : 8
Format : UTF-8
Codec ID : S_TEXT/UTF8
Codec ID/Info : UTF-8 Plain Text
Duration : 1 h 30 min
Bit rate : 64 b/s
Frame rate : 0.271 FPS
Count of elements : 1477
Stream size : 43.1 KiB (0%)
Title : SDH
Language : English
Default : No
Forced : No

Menu
00:00:00.000 : Chapter 01
00:01:42.602 : Chapter 02
00:14:45.635 : Chapter 03
00:28:35.965 : Chapter 04
00:39:32.455 : Chapter 05
00:53:52.440 : Chapter 06
01:06:00.126 : Chapter 07
01:15:30.280 : Chapter 08
01:29:11.351 : Chapter 09




Скачать Пропавшая через торрент https://i120.fastpic.org/big/2022/0720/07/4a48e726847c91d9298d9aee1213c507.jpg Скачать, смотреть онлайн Пропавшая бесплантно в хорошем качестве Описание: Уилл Спэнн везет жену к ее родителям — Лиза заявила, что ей нужен перерыв в отношениях. Но во время остановки на заправке женщина ... 8.6 10 9
Info! Золотая раздача, скачанное не засчитывается.
Торрент: Зарегистрирован [2022-07-20 03:03] · скачан: 193 раз
Статус: √ проверено
Размер: 14.88 GB
Как cкачать? Как скачать Пропавшая через торрент | UTorrent

% Раздел Тема Автор DL S | L
Фильмы 2022 [DVDrip, WEB-DLRip, HDrip] (DUB, MVO) [ 746 MB ] Пропавшая / Last Seen Alive | DUB | BDRip bober100 Скачать
2 | 0
Фильмы [HD 720p, 1080p] (Хороший звук DUB, MVO) [ 10.05 GB ] Пропавшая / Last Seen Alive | TVShows | 1080p bober100 Скачать
2 | 0
Фильмы (Blu-ray, BD-Remux, HDDVD) [ 21.35 GB ] Пропавшая / Last Seen Alive | TVShows | BD Remux 1080p bober100 Скачать
1 | 0
Фильмы [HD 720p, 1080p] (Хороший звук DUB, MVO) [ 5.39 GB ] Пропавшая / Last Seen Alive | TVShows | 720p bober100 Скачать
1 | 0
Фильмы 2022 [DVDrip, WEB-DLRip, HDrip] (DUB, MVO) [ 2.24 GB ] Пропавшая / Last Seen Alive | TVShows | DLRip-AVC Lithuania Скачать
4 | 0
Фильмы 2022 [DVDrip, WEB-DLRip, HDrip] (DUB, MVO) [ 2.33 GB ] Пропавшая / Last Seen Alive | TVShows | DLRip-AVC bober100 Скачать
1 | 0
Фильмы 2022 [DVDrip, WEB-DLRip, HDrip] (DUB, MVO) [ 1.46 GB ] Пропавшая / Last Seen Alive | DUB | BDRip bober100 Скачать
3 | 0

28-11-2019 20:33  


Отключить вcю реклaмy на сайте, в т.ч. и в плеере онлайн просмотра!

22-07-2022 04:12 Пропавшая Скачать торрент  

Разок глянуть можно



    Дорогой пользователь! Огромная просьба, поблагодарите релизера, оцените раздачу и оставьте свои комментарий, если Вы скачали Пропавшая через торрент бесплатно!!
    Комментировать посты могут только пользователи прошедшие не сложную регистрацию
    Показать сообщения:    


    Пропавшая через торрент
    Скачать бесплатно Пропавшая
    Пропавшая скачать торрент
    Пропавшая смотреть онлайн
    Cкачать фильм Пропавшая бесплатно
    Пропавшая скачать торрент в хорошем качестве
    Пропавшая смотреть онлайн бесплатно в хорошем качестве
    Вы не можете начинать темы
    Вы не можете отвечать на сообщения
    Вы не можете редактировать свои сообщения
    Вы не можете удалять свои сообщения
    Вы не можете голосовать в опросах
    Вы не можете прикреплять файлы к сообщениям
    Вы можете скачивать файлы
    Пропавшая / Last Seen Alive [2022, Боевик, триллер, UHD WEB-DL-HEVC 2160p] Дубляж [Кинопоиск HD] +MVO [TVShows] +AVO [Д. Есарев] смотреть онлайн, скачать торрент picoco.icu