Достать ножи: Стеклянная луковица

MVO

Добыча

Дубляж

Уэнсдэй

1 сезон

Тор

Дубляж

13 клиническая

1 сезон

Жестокая ночь

MVO

Одни из нас

1 сезон

Deluxe

pack

Рекомендуем

30

Пиратка

ВАЖНО

ВАЖНО

Ghostwire

Пиратка

jed

RePack

nioh2

RePack

RDR2

RePack

NEED FOR SPEED™ PAYBACK

RePack

скачать торрент

Кинопоиск HD

Острые козырьки 6 сезон

6 сезон

FAR CRY 6

RePack

скачать торрент

Лицензия

скачать торрент

MVO

1

1 сезон

скачать торрент

1 сезон

скачать торрент

Лицензия

  

Монах и бес (Николай Досталь) [2016 г., комедия, фантастика, WEB-DLRip - HEVC 1080p 10 bit 60 FPS]

Монах и бес через торрент pb.wtf

Качают: 1 [ 0 KB/s ]
Размер: 3.1 GB | Добавлен: 6 мес. назад | Торрент скачан:128 раз
Смотреть онлайн | Скачать | Поддержите нас   

20-07-2022 07:45 Монах и бес Скачать торрент  

Монах и бес
Информация о фильме:
Название: Монах и бес
Оригинальное название: Монах и бес
Год выхода: 2016
Жанр: комедия, фантастика
Режиссер: Николай Досталь
В ролях: Тимофей Трибунцев, Георгий Фетисов, Борис Каморзин, Роман Мадянов, Никита Тарасов, Сергей Барковский
Описание: Первая половина XIX века. В провинциальном мужском монастыре появляется новый насельник Иван. Местному игумену новенький сразу не нравится, поэтому он начинает давать ему невыполнимые задания. Но Иван легко справляется и просит ещё — кажется, он либо блаженный, либо одержим бесами.


Страна: Россия
Студия: Эталон-фильм, Профит
Продолжительность: 01:53:03
Перевод: не требуется
Субтитры: нет
Навигация по главам: есть
Информация о файле:
Качество: WEB-DLRip - HEVC 1080p Rip by DD2D3
Формат: MKV
Видео: V_MPEGH/ISO/HEVC; 1920x1040 (1.85:1); 3464 Kbps; 60 fps; 0,029 bpp
Аудио: русский; AC3; 384 Kbps; CBR; 6 ch ||
Доп. информация: нет

Общее
Уникальный идентификатор : 229010486206679827427370767789592801392 (0xAC49D0B744041D66A4F194E7B281F070)
Полное имя : E:\Монах и бес (2016) WEB-DLRip - HEVC 1080p 10 bit 60 FPS.mkv
Формат : Matroska
Версия формата : Version 2
Размер файла : 3,10 Гбайт
Продолжительность : 1 ч. 53 м.
Общий поток : 3 926 Кбит/сек
Название фильма : Rip by from DD2D3
Дата кодирования : UTC 2022-07-20 07:06:32
Программа кодирования : mkvmerge v6.9.1 ('Blue Panther') 32bit built on Apr 18 2014 18:15:44
Библиотека кодирования : libebml v1.3.0 + libmatroska v1.4.1
Attachments : poster

Видео
Идентификатор : 1
Формат : HEVC
Формат/Информация : High Efficiency Video Coding
Профиль формата : Main [email protected]@Main
Идентификатор кодека : V_MPEGH/ISO/HEVC
Продолжительность : 1 ч. 53 м.
Битрейт : 3 464 Кбит/сек
Ширина : 1 920 пикселей
Высота : 1 040 пикселей
Высота оригинала : 1 038 пикселей
Соотношение сторон : 1,85:1
Соотношение сторон в оригинале : 1,85:1
Режим частоты кадров : Постоянный
Частота кадров : 60,000 кадров/сек
Цветовое пространство : YUV
Субдискретизация насыщенности : 4:2:0
Битовая глубина : 10 бит
Бит/(Пиксели*Кадры) : 0.029
Размер потока : 2,74 Гбайт (88%)
Default : Да
Forced : Нет
Цветовой диапазон : Limited
Основные цвета : BT.709
Характеристики трансфера : BT.709
Коэффициенты матрицы : BT.709

Аудио
Идентификатор : 2
Формат : AC-3
Формат/Информация : Audio Coding 3
Коммерческое название : Dolby Digital
Идентификатор кодека : A_AC3
Продолжительность : 1 ч. 53 м.
Вид битрейта : Постоянный
Битрейт : 384 Кбит/сек
Каналы : 6 каналов
Channel layout : L R C LFE Ls Rs
Частота : 48,0 КГц
Частота кадров : 31,250 кадров/сек (1536 SPF)
Метод сжатия : С потерями
Размер потока : 311 Мбайт (10%)
Язык : Russian
Service kind : Complete Main
Default : Да
Forced : Нет
Statistics Tags Issue : mkvmerge v8.3.0 ('Over the Horizon') 64bit 2016-10-05 18:34:43 / mkvmerge v6.9.1 ('Blue Panther') 32bit built on Apr 18 2014 18:15:44 2022-07-20 07:06:32
FromStats_BitRate : 384000
FromStats_Duration : 01:53:03.648000000
FromStats_FrameCount : 211989
FromStats_StreamSize : 325615104

Меню
00:00:00.000 : en:Глава 1
00:05:05.000 : en:Глава 2
00:10:23.791 : en:Глава 3
00:15:43.791 : en:Глава 4
00:20:55.791 : en:Глава 5
00:26:39.249 : en:Глава 6
00:32:24.165 : en:Глава 7
00:38:20.623 : en:Глава 8
00:44:23.206 : en:Глава 9
00:50:23.664 : en:Глава 10
00:56:04.372 : en:Глава 11
01:02:05.330 : en:Глава 12
01:07:42.830 : en:Глава 13
01:12:52.663 : en:Глава 14
01:17:59.163 : en:Глава 15
01:24:00.288 : en:Глава 16
01:29:15.454 : en:Глава 17
01:35:52.204 : en:Глава 18
01:41:12.120 : en:Глава 19
01:46:18.161 : en:Глава 20




Скачать Монах и бес через торрент https://st-kp-yandex-net.translate.goog/images/film_iphone/iphone360_742184.jpg Скачать, смотреть онлайн Монах и бес бесплантно в хорошем качестве Описание: Первая половина XIX века. В провинциальном мужском монастыре появляется новый насельник Иван. Местному игумену новенький сразу не ... 9 10 9
Info! Золотая раздача, скачанное не засчитывается.
Торрент: Зарегистрирован [2022-07-20 07:45] · скачан: 128 раз
Статус: √ проверено
Размер: 3.1 GB
Как cкачать? Как скачать Монах и бес через торрент | UTorrent

% Раздел Тема Автор DL S | L
Наши фильмы 2016 [ 1.37 GB ] Монах и бес | iTunes | DLRip sanekbest1 Скачать
1 | 0
Наши фильмы 2016 [ 2.18 GB ] Монах и бес | iTunes" | DLRip,"iTunes" coc900 Скачать
1 | 0
Наши фильмы (HD, WEB-DL 720p, 1080p) [ 4.35 GB ] Монах и бес | | 1080p bober100 Скачать
2 | 0

28-11-2019 20:33  


Отключить вcю реклaмy на сайте, в т.ч. и в плеере онлайн просмотра!

03-01-2023 11:39 Монах и бес Скачать торрент  

Может есть у кого в 264?
Фильм замечательный,а"хевк"этот только на компютере,а я до сих пор смотрю на телеке через старенький "айконбит".
Пожалуйста?:)



    Дорогой пользователь! Огромная просьба, поблагодарите релизера, оцените раздачу и оставьте свои комментарий, если Вы скачали Монах и бес через торрент бесплатно!!
    Комментировать посты могут только пользователи прошедшие не сложную регистрацию
    Показать сообщения:    


    Монах и бес через торрент
    Скачать бесплатно Монах и бес
    Монах и бес скачать торрент
    Монах и бес смотреть онлайн
    Cкачать фильм Монах и бес бесплатно
    Монах и бес скачать торрент в хорошем качестве
    Монах и бес смотреть онлайн бесплатно в хорошем качестве
    Вы не можете начинать темы
    Вы не можете отвечать на сообщения
    Вы не можете редактировать свои сообщения
    Вы не можете удалять свои сообщения
    Вы не можете голосовать в опросах
    Вы не можете прикреплять файлы к сообщениям
    Вы можете скачивать файлы
    Монах и бес [2016 г., комедия, фантастика, WEB-DLRip - HEVC 1080p 10 bit 60 FPS] смотреть онлайн, скачать торрент picoco.icu