Всегда рабочее зеркало без VPN и Proxy просто перед .vidak.icu напиши любое слово или цифру, Пример http://46jr.vidak.icu

Лицензия

MVO

1 сезон

1

1 сезон

iTunes

1 сезон

13

1 сезон

Deluxe

pack

Рекомендуем

Repack

30

ВАЖНО

RePack

MK11

RePack

jed

RePack

fifa19

RePack

RDR2

RePack

NEED FOR SPEED™ PAYBACK

Кинопоиск HD

6 сезон

 Острые козырьки 6 сезон

Все сериалы

все сериалы на PB.wtf

RePack

FAR CRY 5
  
Magnet ссылка

Пропавшая / Last Seen Alive (Брайан Гудман) [2022, Боевик, триллер, WEB-DLRip-AVC] DUB, MVO, AVO [Кинопоиск HD, TVShows, Д. Есарев] от ExKinoRay pb.wtf

Пропавшая через торрент pb.wtf

Раздают: 8 [ 0 KB/s ]
Размер: 2.24 GB | Добавлен: 24 д. назад | Торрент скачан:134 раза
Смотреть онлайн Пропавшая | Скачать    Ребята, помогите собрать деньги на оплату серверов!!!

21-07-2022 16:44 Пропавшая Скачать торрент  


Пропавшая / Last Seen Alive
Информация о фильме:
Название: Пропавшая
Оригинальное название: Last Seen Alive
Год выхода: 2022
Жанр: Боевик, триллер
Режиссер: Брайан Гудман
В ролях: Джерард Батлер, Джейми Александер, Расселл Хорнсби, Алекс Алифиренко мл., Эмили Бринкс, Билли Бёрнс, Дэни Детте, Робин Флетчер, Дэвид Гурул, Брайс Энтони Хеллер, Синди Хоган, Альфонсо А’Кен-Атен Джексон, Дэвид Каллауэй, Чип Лэйн, Саманта Лоулесс

Описание: Уилл Спэнн везет жену к ее родителям — Лиза заявила, что ей нужен перерыв в отношениях. Но во время остановки на заправке женщина странным образом бесследно исчезает. Уилл поднимает на уши местную полицию и вместе с родителями жены пытается найти ее. Однако со временем подозрение падает на него самого.



Страна: США
Студия: G-BASE, Marc Frydman Productions, Perfection Hunter Productions, Voltage Pictures
Продолжительность: 01:35:01
Перевод: Дублированный - Кинопоиск HD , Профессиональный (многоголосый, закадровый) - TVShows , Авторский - Д. Есарев



Информация о файле:
Кодек: AVC
Формат: MKV
Качество: WEB-DLRip-AVC
Видео: MPEG-4 AVC, 1024x512, 23.976 fps, 1920 kb/s
Аудио RU: AC3, 6 ch, 48 kHz, 448 kbps | Кинопоиск HD
Аудио RU: AC3, 2 ch, 48 kHz, 192 kbps | TVShows
Аудио RU: AC3, 6 ch, 48 kHz, 384 kbps | Д. Есарев
Аудио EN: AC3, 6 ch, 48 kHz, 448 kbps
Субтитры: Английские



[x264] frame I:1026 Avg QP:15.35 size: 63770
[x264] frame P:36975 Avg QP:17.87 size: 19681
[x264] frame B:98691 Avg QP:19.38 size: 5739
General
Unique ID : 110762534838787477270852400486508216973 (0x53541697F5C24B3C7AD1320F2B49428D)
Complete name : D:uTorrentРипы wolf1245Last Seen Alive.2022.DUB.MVO.AVO.KHD.TVShows.ESAREV.X264.WEB-DLRip-AVC.[wolf1245.ExKinoRay].mkv
Format : Matroska
Format version : Version 4
File size : 2.24 GiB
Duration : 1 h 35 min
Overall bit rate : 3 382 kb/s
Movie name : Last Seen Alive.2022.DUB.MVO.AVO.KHD.TVShows.ESAREV.X264.WEB-DLRip-AVC.[wolf1245.ExKinoRay]
Encoded date : UTC 2022-07-21 16:29:53
Writing application : mkvmerge v69.0.0 ('Day And Age') 64-bit
Writing library : libebml v1.4.2 + libmatroska v1.6.4
Video
ID : 1
Format : AVC
Format/Info : Advanced Video Codec
Format profile : [email protected]
Format settings : CABAC / 10 Ref Frames
Format settings, CABAC : Yes
Format settings, Reference frames : 10 frames
Codec ID : V_MPEG4/ISO/AVC
Duration : 1 h 35 min
Bit rate : 1 920 kb/s
Width : 1 024 pixels
Height : 512 pixels
Display aspect ratio : 2.000
Frame rate mode : Constant
Frame rate : 23.976 (24000/1001) FPS
Color space : YUV
Chroma subsampling : 4:2:0
Bit depth : 8 bits
Scan type : Progressive
Bits/(Pixel*Frame) : 0.153
Stream size : 1.27 GiB (56%)
Title : -=[wolf1245.ExKinoRay]=-
Writing library : x264 core 163
Encoding settings : cabac=1 / ref=10 / deblock=1:-1:-1 / analyse=0x3:0x133 / me=umh / subme=9 / psy=1 / psy_rd=0.98:0.15 / mixed_ref=1 / me_range=32 / chroma_me=1 / trellis=2 / 8x8dct=1 / cqm=0 / deadzone=21,11 / fast_pskip=1 / chroma_qp_offset=-3 / threads=10 / lookahead_threads=2 / sliced_threads=0 / nr=0 / decimate=0 / interlaced=0 / bluray_compat=0 / constrained_intra=0 / bframes=10 / b_pyramid=2 / b_adapt=2 / b_bias=0 / direct=3 / weightb=1 / open_gop=0 / weightp=2 / keyint=240 / keyint_min=24 / scenecut=40 / intra_refresh=0 / rc_lookahead=100 / rc=2pass / mbtree=0 / bitrate=1920 / ratetol=1.0 / qcomp=0.75 / qpmin=0 / qpmax=69 / qpstep=4 / cplxblur=20.0 / qblur=0.5 / vbv_maxrate=50000 / vbv_bufsize=62500 / nal_hrd=none / filler=0 / ip_ratio=1.35 / pb_ratio=1.25 / aq=1:1.00
Language : English
Default : Yes
Forced : No
Color range : Limited
Color primaries : BT.709
Transfer characteristics : BT.709
Matrix coefficients : BT.709
Audio #1
ID : 2
Format : AC-3
Format/Info : Audio Coding 3
Commercial name : Dolby Digital
Codec ID : A_AC3
Duration : 1 h 34 min
Bit rate mode : Constant
Bit rate : 448 kb/s
Channel(s) : 6 channels
Channel layout : L R C LFE Ls Rs
Sampling rate : 48.0 kHz
Frame rate : 31.250 FPS (1536 SPF)
Compression mode : Lossy
Stream size : 304 MiB (13%)
Title : DUB | KHD | RUS
Language : Russian
Service kind : Complete Main
Default : Yes
Forced : Yes
Audio #2
ID : 3
Format : AC-3
Format/Info : Audio Coding 3
Commercial name : Dolby Digital
Codec ID : A_AC3
Duration : 1 h 35 min
Bit rate mode : Constant
Bit rate : 192 kb/s
Channel(s) : 2 channels
Channel layout : L R
Sampling rate : 48.0 kHz
Frame rate : 31.250 FPS (1536 SPF)
Compression mode : Lossy
Stream size : 130 MiB (6%)
Title : MVO | TVShows | RUS
Language : Russian
Service kind : Complete Main
Default : No
Forced : No
Audio #3
ID : 4
Format : AC-3
Format/Info : Audio Coding 3
Commercial name : Dolby Digital
Codec ID : A_AC3
Duration : 1 h 35 min
Bit rate mode : Constant
Bit rate : 384 kb/s
Channel(s) : 6 channels
Channel layout : L R C LFE Ls Rs
Sampling rate : 48.0 kHz
Frame rate : 31.250 FPS (1536 SPF)
Compression mode : Lossy
Stream size : 261 MiB (11%)
Title : AVO | Yesarev | RUS
Language : Russian
Service kind : Complete Main
Default : No
Forced : No
Audio #4
ID : 5
Format : AC-3
Format/Info : Audio Coding 3
Commercial name : Dolby Digital
Codec ID : A_AC3
Duration : 1 h 35 min
Bit rate mode : Constant
Bit rate : 448 kb/s
Channel(s) : 6 channels
Channel layout : L R C LFE Ls Rs
Sampling rate : 48.0 kHz
Frame rate : 31.250 FPS (1536 SPF)
Compression mode : Lossy
Stream size : 304 MiB (13%)
Title : Original | ENG
Language : English
Service kind : Complete Main
Default : No
Forced : No
Text #1
ID : 6
Format : UTF-8
Codec ID : S_TEXT/UTF8
Codec ID/Info : UTF-8 Plain Text
Duration : 1 h 28 min
Bit rate : 56 b/s
Count of elements : 1173
Stream size : 36.4 KiB (0%)
Title : Full
Language : English
Default : No
Forced : No
Text #2
ID : 7
Format : UTF-8
Codec ID : S_TEXT/UTF8
Codec ID/Info : UTF-8 Plain Text
Duration : 1 h 28 min
Bit rate : 65 b/s
Count of elements : 1401
Stream size : 42.5 KiB (0%)
Title : SDH
Language : English
Default : No
Forced : No
Релиз от:
Автор релиза:
pb.wtf



Скачать Пропавшая через торрент http://i120.fastpic.org/big/2022/0721/3d/ca07f6b0d68b1652abdab875f2dbf83d.jpg Скачать, смотреть онлайн Пропавшая бесплантно в хорошем качестве Описание: Уилл Спэнн везет жену к ее родителям — Лиза заявила, что ей нужен перерыв в отношениях. Но во время остановки на заправке ... 8.2 10 5
Торрент: Зарегистрирован [2022-07-21 16:44] · скачан: 134 раз
Статус: √ проверено
Размер: 2.24 GB
Как cкачать? Как скачать Пропавшая через торрент | UTorrent

% Раздел Тема Автор DL S | L
Фильмы 2022 [DVDrip, WEB-DLRip, HDrip] (DUB, MVO) [ 1.96 GB ] Пропавшая / Last Seen Alive [2022 WEB-DLRip-AVC] MVODVO [TVShows Pazl Voice] от ExKinoRay Lithuania Скачать
12 | 0

28-11-2019 20:33  

Отключить вcю реклaмy на сайте

    Дорогой пользователь! Огромная просьба, поблагодарите релизера, оцените раздачу и оставьте свои комментарий, если Вы скачали Пропавшая через торрент бесплатно!
    Комментировать посты могут только пользователи прошедшие не сложную регистрацию
    Показать сообщения:    

    Пропавшая через торрент
    Скачать бесплатно Пропавшая
    Пропавшая скачать торрент
    Пропавшая смотреть онлайн
    Cкачать фильм Пропавшая бесплатно
    Пропавшая скачать торрент в хорошем качестве
    Пропавшая смотреть онлайн бесплатно в хорошем качестве


    Вы можете начинать темы
    Вы можете отвечать на сообщения
    Вы не можете редактировать свои сообщения
    Вы не можете удалять свои сообщения
    Вы не можете голосовать в опросах
    Вы не можете прикреплять файлы к сообщениям
    Вы можете скачивать файлы