Всегда рабочее зеркало без VPN и Proxy просто перед .vidak.icu напиши любое слово или цифру, Пример http://kayy.vidak.icu

Лицензия

MVO

1 сезон

1

1 сезон

iTunes

1 сезон

13

1 сезон

Deluxe

pack

Рекомендуем

Repack

30

ВАЖНО

RePack

MK11

RePack

jed

RePack

fifa19

RePack

RDR2

RePack

NEED FOR SPEED™ PAYBACK

Кинопоиск HD

6 сезон

 Острые козырьки 6 сезон

Все сериалы

все сериалы на PB.wtf

RePack

FAR CRY 5
  
Magnet ссылка

Ганц: О — Миссия Осака / Ганц: Миссия Осака / Gantz: O (Ясуси Кавамура, Кейити Саито) [2016, Мультфильм, аниме, боевик, фантастика, ужасы, BDRip 1080p] DUB [StudioBand] +MVO (rus, ukr) [AlexFilm] +AVO [М. Чадов] pb.wtf

Ганц: О — Миссия Осака через торрент pb.wtf

Раздают: 1 [ 0 KB/s ]
Размер: 11.73 GB | Добавлен: 25 д. назад | Торрент скачан:29 раз
Смотреть онлайн Ганц: О — Миссия Осака | Скачать    Ребята, помогите собрать деньги на оплату серверов!!!

21-07-2022 18:18 Ганц: О — Миссия Осака Скачать торрент  

Ганц: О — Миссия Осака / Ганц: Миссия Осака
Gantz: O

Год выпуска: 2016
Страна: Япония
Выпущено: Digital Frontier
Жанр: Мультфильм, аниме, боевик, фантастика, ужасы
Продолжительность: 01:35:13
Перевод:
Дублированный | StudioBand
Профессиональное (многоголосое) | AlexFilm
Aвторское (одноголосое) | М. Чадов
Субтитры: Русские (Forced, full), английские

Режиссер: Ясуси Кавамура, Кейити Саито

rating

В ролях: Юки Кадзи, Дайсукэ Оно, Саори Хаями, Мао Итимити, Масая Оносака, Кэндзиро Цуда, Сюити Икэда, Тэруаки Огава, Масанэ Цукаяма, Томохиро Каку, Кобаяси Кэндо, Макото Идзибути, Масаки Сумитани

Описание: В центре сюжета — мужчина, который после своей гибели под колёсами поезда метро становится частью проекта «Ганц». Главная его задача, а также других недавно погибших людей, заключается в том, чтобы выслеживать и убивать инопланетян.

Качество: BDRip 1080p
Формат: MKV

Видео: MPEG-4 AVC, 14.7 Mb/s, 1920x1036
Аудио #1: Russian: 48 kHz, AC3 Dolby Digital, 3/2 (L, C, R, l, r) + LFE ch, ~384 Kbps | DUB | StudioBand
Аудио #2: Russian: 48 kHz, AC3 Dolby Digital, 3/2 (L, C, R, l, r) + LFE ch, ~640 Kbps | MVO | AlexFilm
Аудио #3: Russian: 48 kHz, AC3 Dolby Digital, 3/2 (L, C, R, l, r) + LFE ch, ~640 Kbps | AVO | М. Чадов
Аудио #4: Ukrainian: 48 kHz, AC3 Dolby Digital, 3/2 (L, C, R, l, r) + LFE ch, ~640 Kbps | MVO
Аудио #5: Japanese: 48 kHz, AC3 Dolby Digital, 3/2 (L, C, R, l, r) + LFE ch, ~640 Kbps | Original
скриншот  скриншот  скриншот  скриншот  

Complete name: Gantz.O.2016.BDRip.1080p.ELEKTRI4KA.UNIONGANG.mkv
Format: Matroska
Format version: Version 4
File size: 11.7 GiB
Duration: 1 h 35 min
Overall bit rate: 17.6 Mb/s
Movie name: Gantz.O.2016.BDRip.1080p.ELEKTRI4KA.UNIONGANG.
Encoded date: UTC 2022-07-19 13:02:19
Writing application: mkvmerge v8.3.0 ('Over the Horizon') 32bit
Writing library: libebml v1.3.1 + libmatroska v1.4.2

Video
ID: 1
Format: AVC
Format/Info: Advanced Video Codec
Format profile: [email protected]
Format settings: CABAC / 4 Ref Frames
Format settings, CABAC: Yes
Format settings, Reference frames: 4 frames
Codec ID: V_MPEG4/ISO/AVC
Duration: 1 h 35 min
Bit rate: 14.7 Mb/s
Width: 1 920 pixels
Height: 1 036 pixels
Display aspect ratio: 1.85:1
Frame rate mode: Constant
Frame rate: 23.976 (24000/1001) FPS
Color space: YUV
Chroma subsampling: 4:2:0
Bit depth: 8 bits
Scan type: Progressive
Bits/(Pixel*Frame): 0.308
Stream size: 9.77 GiB (83%)
Writing library: x264 core 157 r2958 57baac4
Encoding settings: cabac=1 / ref=4 / deblock=1:-3:-3 / analyse=0x3:0x113 / me=umh / subme=10 / psy=1 / psy_rd=1.00:0.00 / mixed_ref=1 / me_range=32 / chroma_me=1 / trellis=2 / 8x8dct=1 / cqm=0 / deadzone=21, 11 / fast_pskip=0 / chroma_qp_offset=-2 / threads=22 / lookahead_threads=3 / sliced_threads=0 / nr=0 / decimate=0 / interlaced=0 / bluray_compat=0 / constrained_intra=0 / bframes=8 / b_pyramid=2 / b_adapt=2 / b_bias=0 / direct=3 / weightb=1 / open_gop=0 / weightp=2 / keyint=240 / keyint_min=24 / scenecut=40 / intra_refresh=0 / rc=2pass / mbtree=0 / bitrate=14703 / ratetol=1.0 / qcomp=0.60 / qpmin=0 / qpmax=69 / qpstep=4 / cplxblur=20.0 / qblur=0.5 / ip_ratio=1.40 / pb_ratio=1.30 / aq=1:1.00
Language: Japanese
Default: Yes
Forced: No

Audio #1
ID: 2
Format: AC-3
Format/Info: Audio Coding 3
Commercial name: Dolby Digital
Codec ID: A_AC3
Duration: 1 h 35 min
Bit rate mode: Constant
Bit rate: 384 kb/s
Channel(s): 6 channels
Channel layout: L R C LFE Ls Rs
Sampling rate: 48.0 kHz
Frame rate: 31.250 FPS (1536 SPF)
Compression mode: Lossy
Stream size: 261 MiB (2%)
Title: DUB (StudioBand)
Language: Russian
Service kind: Complete Main
Default: Yes
Forced: Yes

Audio #2
ID: 3
Format: AC-3
Format/Info: Audio Coding 3
Commercial name: Dolby Digital
Codec ID: A_AC3
Duration: 1 h 35 min
Bit rate mode: Constant
Bit rate: 640 kb/s
Channel(s): 6 channels
Channel layout: L R C LFE Ls Rs
Sampling rate: 48.0 kHz
Frame rate: 31.250 FPS (1536 SPF)
Compression mode: Lossy
Stream size: 436 MiB (4%)
Title: MVO AlexFilm
Language: Russian
Service kind: Complete Main
Default: No
Forced: No

Audio #3
ID: 4
Format: AC-3
Format/Info: Audio Coding 3
Commercial name: Dolby Digital
Codec ID: A_AC3
Duration: 1 h 35 min
Bit rate mode: Constant
Bit rate: 640 kb/s
Channel(s): 6 channels
Channel layout: L R C LFE Ls Rs
Sampling rate: 48.0 kHz
Frame rate: 31.250 FPS (1536 SPF)
Compression mode: Lossy
Stream size: 436 MiB (4%)
Title: AVO Чадов Михаил Владимирович
Language: Russian
Service kind: Complete Main
Default: No
Forced: No

Audio #4
ID: 5
Format: AC-3
Format/Info: Audio Coding 3
Commercial name: Dolby Digital
Codec ID: A_AC3
Duration: 1 h 35 min
Bit rate mode: Constant
Bit rate: 640 kb/s
Channel(s): 6 channels
Channel layout: L R C LFE Ls Rs
Sampling rate: 48.0 kHz
Frame rate: 31.250 FPS (1536 SPF)
Compression mode: Lossy
Stream size: 436 MiB (4%)
Title: MVO
Language: Ukrainian
Service kind: Complete Main
Default: No
Forced: No

Audio #5
ID: 6
Format: AC-3
Format/Info: Audio Coding 3
Commercial name: Dolby Digital
Codec ID: A_AC3
Duration: 1 h 35 min
Bit rate mode: Constant
Bit rate: 640 kb/s
Channel(s): 6 channels
Channel layout: L R C LFE Ls Rs
Sampling rate: 48.0 kHz
Frame rate: 31.250 FPS (1536 SPF)
Compression mode: Lossy
Stream size: 436 MiB (4%)
Title: Original
Language: Japanese
Service kind: Complete Main
Default: No
Forced: No

Text #1
ID: 7
Format: UTF-8
Codec ID: S_TEXT/UTF8
Codec ID/Info: UTF-8 Plain Text
Duration: 1 h 26 min
Bit rate: 2 b/s
Count of elements: 32
Stream size: 1.64 KiB (0%)
Title: Forced
Language: Russian
Default: Yes
Forced: Yes

Text #2
ID: 8
Format: UTF-8
Codec ID: S_TEXT/UTF8
Codec ID/Info: UTF-8 Plain Text
Duration: 1 h 29 min
Bit rate: 45 b/s
Count of elements: 769
Stream size: 30.1 KiB (0%)
Title: Full
Language: Russian
Default: No
Forced: No

Text #3
ID: 9
Format: UTF-8
Codec ID: S_TEXT/UTF8
Codec ID/Info: UTF-8 Plain Text
Duration: 1 h 29 min
Bit rate: 22 b/s
Count of elements: 719
Stream size: 15.0 KiB (0%)
Language: English
Default: No
Forced: No

Menu
00:00:00.000: en:00:00:00.000
00:04:29.895: en:00:04:29.895
00:15:29.053: en:00:15:29.053
00:26:43.727: en:00:26:43.727
00:42:17.785: en:00:42:17.785
00:58:29.172: en:00:58:29.172
01:10:47.034: en:01:10:47.034
01:21:59.248: en:01:21:59.248
01:30:03.398: en:01:30:03.398

pb.wtf



Скачать Ганц: О — Миссия Осака через торрент https://i120.fastpic.org/big/2022/0717/9d/baa569ba4e263fa69de3ae73b472979d.png Скачать, смотреть онлайн Ганц: О — Миссия Осака бесплантно в хорошем качестве Описание: В центре сюжета — мужчина, который после своей гибели под колёсами поезда метро становится частью проекта «Ганц». Главная его ... 9.5 10 4
Торрент: Зарегистрирован [2022-07-21 18:18] · скачан: 29 раз
Статус: √ проверено
Размер: 11.73 GB
Как cкачать? Как скачать Ганц: О — Миссия Осака через торрент | UTorrent

% Раздел Тема Автор DL S | L
Аниме [DVDrip, WEB-DLRip, HDrip] [ 1.46 GB ] Ганц: О — Миссия Осака / Ганц: Миссия Осака / Gantz: O [2016 Мультфильм аниме BDRip] DUB [StudioBand] bober100 Скачать
2 | 0

28-11-2019 20:33  

Отключить вcю реклaмy на сайте

21-07-2022 22:56 Ганц: О — Миссия Осака Скачать торрент  

нормальный фантастический мульт. с некоторым азиатским колоритом, но смотреть можно, уж точно получше одноименного кинофильма будетpb.wtf



    Дорогой пользователь! Огромная просьба, поблагодарите релизера, оцените раздачу и оставьте свои комментарий, если Вы скачали Ганц: О — Миссия Осака через торрент бесплатно!
    Комментировать посты могут только пользователи прошедшие не сложную регистрацию
    Показать сообщения:    

    Ганц: О — Миссия Осака через торрент
    Скачать бесплатно Ганц: О — Миссия Осака
    Ганц: О — Миссия Осака скачать торрент
    Ганц: О — Миссия Осака смотреть онлайн
    Cкачать фильм Ганц: О — Миссия Осака бесплатно
    Ганц: О — Миссия Осака скачать торрент в хорошем качестве
    Ганц: О — Миссия Осака смотреть онлайн бесплатно в хорошем качестве


    Вы не можете начинать темы
    Вы не можете отвечать на сообщения
    Вы не можете редактировать свои сообщения
    Вы не можете удалять свои сообщения
    Вы не можете голосовать в опросах
    Вы не можете прикреплять файлы к сообщениям
    Вы можете скачивать файлы