Лицензия

MVO

1

1 сезон

Лицензия

Лицензия

13

MVO

1 сезон

Deluxe Edition

pack

Рекомендуем

30

Repack

ВАЖНО

ВАЖНО

Ghostwire

RePack

jed

RePack

fifa19

RePack

RDR2

RePack

NEED FOR SPEED™ PAYBACK

RePack

Кинопоиск HD

 Острые козырьки 6 сезон

6 сезон

FAR CRY 6

RePack

Лицензия

MVO

1

1 сезон

1 сезон

Лицензия

  

Расплата / Payback (Энтони Хикокс) [1995 г., триллер, DVDRip-AVC] AVO [Андрей Гаврилов]

Расплата через торрент pb.wtf

Раздают: 1 [ 0 KB/s ]
Размер: 1.52 GB | Добавлен: 2 мес. 6 д. назад | Торрент скачан:29 раз
Смотреть онлайн Расплата | Скачать   

21-07-2022 21:16 Расплата Скачать торрент  

Расплата | Payback

Год выпуска: 1995
Страна: США | Tapestry Films, Trimark Pictures
Жанр: триллер
Продолжительность: 01:29:23
Перевод: Авторский одноголосый, закадровый (Андрей Гаврилов)

Режиссер: Энтони Хикокс

В ролях: Си Томас Хауэлл, Джоан Северанс, Маршалл Белл, Ричард Берджи, Джон Тоулс-Бей, Р.Г. Армстронг, Стив Уилкокс, Лиза Робин Келли, Дэвид Энтони Хиггинс, Денис Бессетт

Описание: Оказавшись за решёткой после попытки ограбления магазина, Оскар знакомится со старым зеком Маком и узнаёт, что на воле у того припрятано солидное состояние. Садист-надзиратель Гелли пытается вытрясти из Мака информацию о местонахождении награбленного, но тот не выдаёт секрета. Несговорчивость приводит к тому, что во время очередного допроса Мак получает увечья, не сопоставимые с жизнью.
Перед смертью Мак всё-таки успевает поведать Оскару о карте, ведущей к спрятанным деньгам, но предварительно берёт с него обещание отомстить Гелли за свою гибель.

rating
Рейтинг R - Детям до 17 лет обязательно присутствие родителей

Файл
Формат: MKV
Кодек: x264
Качество: DVDRip-AVC
Видео: MPEG-4 AVC, [email protected], 25.000 fps, 2244 kbps, 0.221 bit/pixel
Аудио #1: Русский, AC3, 2 chnls, 192 kbps | AVO, Андрей Гаврилов
Аудио #2: Английский, AC3, 2 chnls, 192 kbps | Original | Отдельно
x264 [info]: frame I:783 Avg QP:17.61 size: 38828
x264 [info]: frame P:31254 Avg QP:17.89 size: 23617
x264 [info]: frame B:102052 Avg QP:19.66 size: 7213
x264 [info]: consecutive B-frames: 2.6% 4.1% 10.4% 19.1% 20.3% 36.1% 3.6% 0.8% 0.8% 0.6% 0.3% 0.2% 0.3% 0.3% 0.2% 0.2%
Format : Matroska
Format version : Version 4
File size : 1.52 GiB
Duration : 1 h 29 min
Overall bit rate : 2 439 kb/s
Movie name : Payback (1995) - Rip by -{am}-
Encoded date : UTC 2022-07-20 11:03:30
Writing application : mkvmerge v7.2.0 ('On Every Street') 32bit built on Sep 13 2014 15:42:11
Writing library : libebml v1.3.0 + libmatroska v1.4.1
Attachments : poster.png

Video
ID : 1
Format : AVC
Format/Info : Advanced Video Codec
Format profile : [email protected]
Format settings : CABAC / 16 Ref Frames
Format settings, CABAC : Yes
Format settings, Reference : 16 frames
Codec ID : V_MPEG4/ISO/AVC
Duration : 1 h 29 min
Bit rate : 2 244 kb/s
Width : 704 pixels
Height : 576 pixels
Display aspect ratio : 4:3
Frame rate mode : Constant
Frame rate : 25.000 FPS
Standard : PAL
Color space : YUV
Chroma subsampling : 4:2:0
Bit depth : 8 bits
Scan type : Progressive
Bits/(Pixel*Frame) : 0.221
Stream size : 1.40 GiB (92%)
Title : Payback.1995.{am}.752.Rus
Writing library : x264 core 164 r3085+55M 938b6d0 t_mod_New [(8 & 10)[email protected] X86_64]
Encoding settings : cabac=1 / ref=16 / deblock=1:-3:-2 / analyse=0x3:0x133 / me=umh / subme=11 / psy=1 / fade_compensate=0.00 / psy_rd=1.07:0.20 / mixed_ref=1 / me_range=48 / chroma_me=1 / trellis=2 / 8x8dct=1 / cqm=2 / deadzone=21,11 / fast_pskip=0 / chroma_qp_offset=-3 / threads=18 / lookahead_threads=4 / sliced_threads=0 / nr=0 / decimate=0 / interlaced=0 / bluray_compat=0 / constrained_intra=0 / fgo=0 / bframes=16 / b_pyramid=2 / b_adapt=2 / b_bias=0 / direct=3 / weightb=1 / open_gop=0 / weightp=2 / keyint=250 / keyint_min=25 / scenecut=40 / intra_refresh=0 / rc_lookahead=40 / rc=crf / mbtree=0 / crf=18.5000 / qcomp=0.60 / qpmin=0:0:0 / qpmax=30:30:30 / qpstep=4 / vbv_maxrate=62500 / vbv_bufsize=78125 / crf_max=27.9 / nal_hrd=none / filler=0 / ip_ratio=1.25 / pb_ratio=1.30 / aq=3:1.00 / aq-sensitivity=10.00 / aq-factor=1.00:1.00:1.00 / aq2=0 / aq3=0
Language : English
Default : Yes
Forced : No

Audio
ID : 2
Format : AC-3
Format/Info : Audio Coding 3
Commercial name : Dolby Digital
Codec ID : A_AC3
Duration : 1 h 29 min
Bit rate mode : Constant
Bit rate : 192 kb/s
Channel(s) : 2 channels
Channel layout : L R
Sampling rate : 48.0 kHz
Frame rate : 31.250 FPS (1536 SPF)
Compression mode : Lossy
Stream size : 123 MiB (8%)
Title : AVO, Гаврилов
Language : Russian
Service kind : Complete Main
Default : Yes
Forced : No

Menu
00:00:00.000 : :Глава 1
00:13:19.440 : :Глава 2
00:21:53.520 : :Глава 3
00:38:25.680 : :Глава 4
00:57:02.399 : :Глава 5
01:14:39.120 : :Глава 6
DVD - DVDRip

скриншот  скриншот  скриншот  скриншот  

скриншот  скриншот  скриншот  скриншот  

скриншот  скриншот  скриншот  скриншот  



Скачать Расплата через торрент https://i120.fastpic.org/big/2022/0721/3f/044b79e06d330d315ed97571b764a83f.jpg Скачать, смотреть онлайн Расплата бесплантно в хорошем качестве Описание: Оказавшись за решёткой после попытки ограбления магазина, Оскар знакомится со старым зеком Маком и узнаёт, что на воле у того ... 5 10 1
Торрент: Зарегистрирован [2022-07-21 21:16] · скачан: 29 раз
Статус: √ проверено
Размер: 1.52 GB
Как cкачать? Как скачать Расплата через торрент | UTorrent

28-11-2019 20:33  

Отключить вcю реклaмy на сайте

    Дорогой пользователь! Огромная просьба, поблагодарите релизера, оцените раздачу и оставьте свои комментарий, если Вы скачали Расплата через торрент бесплатно!!
    Комментировать посты могут только пользователи прошедшие не сложную регистрацию
    Показать сообщения:    


    Расплата через торрент
    Скачать бесплатно Расплата
    Расплата скачать торрент
    Расплата смотреть онлайн
    Cкачать фильм Расплата бесплатно
    Расплата скачать торрент в хорошем качестве
    Расплата смотреть онлайн бесплатно в хорошем качестве
    Вы не можете начинать темы
    Вы не можете отвечать на сообщения
    Вы не можете редактировать свои сообщения
    Вы не можете удалять свои сообщения
    Вы не можете голосовать в опросах
    Вы не можете прикреплять файлы к сообщениям
    Вы можете скачивать файлы