Всегда рабочее зеркало без VPN и Proxy просто перед .vidak.icu напиши любое слово или цифру, Пример http://5b3w.vidak.icu

MVO

MVO

1 сезон

1

1 сезон

iTunes

1 сезон

13

1 сезон

Deluxe

pack

Рекомендуем

Repack

30

ВАЖНО

RePack

MK11

RePack

jed

RePack

fifa19

RePack

RDR2

RePack

NEED FOR SPEED™ PAYBACK

Кинопоиск HD

6 сезон

 Острые козырьки 6 сезон

Все сериалы

все сериалы на PB.wtf

RePack

FAR CRY 5
  
Magnet ссылка

Парадокс времени / Danger! Danger! (Лекси Финдарл Тривундза, Ник Тривундза) [2021 г., фантастика, боевик, приключения, WEB-DLRip, Дубляж "iTunes"] pb.wtf

Парадокс времени через торрент pb.wtf

Раздают: 5 [ 0 KB/s ]
Размер: 701 MB | Добавлен: 16 д. назад | Торрент скачан:8 раз
Смотреть онлайн Парадокс времени | Скачать    Ребята, помогите собрать деньги на оплату серверов!!!

22-07-2022 17:39 Парадокс времени Скачать торрент  

Парадокс времени / Danger! Danger!
Год выпуска: 2021
Страна: США / Adventure Company, Naissance
Жанр: фантастика, боевик, приключения
Продолжительность: 01:15:55
Перевод: Дубляж (iTunes)
«Любовное письмо к фильмам Спилберга 80-х годов»

Режиссер: Лекси Финдарл Тривундза, Ник Тривундза

rating

В ролях: Benedict Mazurek, Пол Хаапаниеми, Angela Smeraldi, Александра Келлер, Александр Харрис, Мэтт Бун,Райан Ларсен, Эндрю Форнер, Брэндон Александер, Азалия Тривундза

Описание: Искатель приключений Джонатан Дэнджер совершает аварийную посадку на пустынном острове. Его цель - Храм, который может стать пропуском в прошлое. Дэнджер сталкивается с грозными врагами, которые хотят с помощью Храма изменить ход истории и разрушить мир. Сможет ли Джонатан добраться до Храма первым и спасти мир?

Качество: WEB-DLRip
Формат: AVI
Видео кодек: DivX
Аудио кодек: MP3
Видео: 640x272 (2.35:1), 23.976 fps, DivX Codec 4.x ~1153 kbps avg, 0.28 bit/pixel
Аудио: 48 kHz, MPEG Layer 3, 2 ch, ~128.00 kbps avg

Общее
Полное имя : G:\ФИЛЬМЫ\Парадокс времени.2021.D.WEB-DLRip.700MB.avi
Формат : AVI
Формат/Информация : Audio Video Interleave
Размер файла : 701 Мбайт
Продолжительность : 1 ч. 15 м.
Общий поток : 1 291 Кбит/сек
Программа кодирования : VirtualDubMod 1.5.10.3 | www.virtualdub-fr.org || (build 2550/release)
Библиотека кодирования : VirtualDubMod build 2550/release

Видео
Идентификатор : 0
Формат : MPEG-4 Visual
Профиль формата : Advanced [email protected]
Настройки формата : BVOP2
Параметр BVOP формата : 2
Параметр QPel формата : Нет
Параметр GMC формата : Без точки перехода
Параметр матрицы формата : Default (MPEG)
Идентификатор кодека : DIVX
Идентификатор кодека/Информация : Project Mayo
Идентификатор кодека/Подсказка : DivX 4
Продолжительность : 1 ч. 15 м.
Битрейт : 1 153 Кбит/сек
Ширина : 640 пикселей
Высота : 272 пикселя
Соотношение сторон : 2,35:1
Частота кадров : 23,976 (24000/1001) кадра/сек
Цветовое пространство : YUV
Субдискретизация насыщенности : 4:2:0
Битовая глубина : 8 бит
Тип развёртки : Прогрессивная
Метод сжатия : С потерями
Бит/(Пиксели*Кадры) : 0.276
Размер потока : 626 Мбайт (89%)
Библиотека кодирования : XviD 1.2.1 (UTC 2008-12-04)

Аудио
Идентификатор : 1
Формат : MPEG Audio
Версия формата : Version 1
Профиль формата : Layer 3
Настройки формата : Joint stereo / MS Stereo
Идентификатор кодека : 55
Идентификатор кодека/Подсказка : MP3
Продолжительность : 1 ч. 15 м.
Вид битрейта : Постоянный
Битрейт : 128 Кбит/сек
Каналы : 2 канала
Частота : 48,0 КГц
Частота кадров : 41,667 кадра/сек (1152 SPF)
Метод сжатия : С потерями
Размер потока : 69,5 Мбайт (10%)
Выравнивание : Соединение по промежуткам
Продолжительность промежутка : 42 мс. (1,00 видеокадр)
Время предзагрузки промежутка : 504 мс.
Библиотека кодирования : LAME3.99r
Настройки программы : -m j -V 4 -q 2 -lowpass 17 -b 128

ReportBy : MediaInfoLib - v22.06
CreatedOn : UTC 2022-07-22 17:01:03

pb.wtf



Скачать Парадокс времени через торрент https://i120.fastpic.org/big/2022/0722/92/c68f15f19f4026d2164c5adc3c43a392.jpg Скачать, смотреть онлайн Парадокс времени бесплантно в хорошем качестве Описание: Искатель приключений Джонатан Дэнджер совершает аварийную посадку на пустынном острове. Его цель - Храм, который может стать ... 10 10 1
Торрент: Зарегистрирован [2022-07-22 17:39] · скачан: 8 раз
Статус: √ проверено
Размер: 701 MB
Как cкачать? Как скачать Парадокс времени через торрент | UTorrent

% Раздел Тема Автор DL S | L
Фильмы (WEB-DL 720p, 1080p) [ 3.9 GB ] Парадокс времени / Danger! Danger! [2021 WEB-DL 1080p] DUB [Pride Production / ] bober100 Скачать
7 | 0
Фильмы 2021 [DVDrip, WEB-DLRip, HDrip] (DUB, MVO) [ 1.46 GB ] Парадокс времени / Danger! Danger! [2021 WEB-DLRip] DUB [Pride Production / ] bober100 Скачать
7 | 0
Фильмы 2021 [DVDrip, WEB-DLRip, HDrip] (DUB, MVO) [ 1.49 GB ] Парадокс времени / Danger! Danger! [2020 WEB-DLRip-AVC] DUB [Pride Production | ] от ExKinoRay Lithuania Скачать
2 | 0

28-11-2019 20:33  

Отключить вcю реклaмy на сайте

    Дорогой пользователь! Огромная просьба, поблагодарите релизера, оцените раздачу и оставьте свои комментарий, если Вы скачали Парадокс времени через торрент бесплатно!
    Комментировать посты могут только пользователи прошедшие не сложную регистрацию
    Показать сообщения:    

    Парадокс времени через торрент
    Скачать бесплатно Парадокс времени
    Парадокс времени скачать торрент
    Парадокс времени смотреть онлайн
    Cкачать фильм Парадокс времени бесплатно
    Парадокс времени скачать торрент в хорошем качестве
    Парадокс времени смотреть онлайн бесплатно в хорошем качестве


    Вы не можете начинать темы
    Вы не можете отвечать на сообщения
    Вы не можете редактировать свои сообщения
    Вы не можете удалять свои сообщения
    Вы не можете голосовать в опросах
    Вы не можете прикреплять файлы к сообщениям
    Вы можете скачивать файлы