Достать ножи: Стеклянная луковица

MVO

Добыча

Дубляж

Уэнсдэй

1 сезон

Тор

Дубляж

13 клиническая

1 сезон

Жестокая ночь

MVO

Одни из нас

1 сезон

Deluxe

pack

Рекомендуем

30

Пиратка

ВАЖНО

ВАЖНО

Ghostwire

Пиратка

jed

RePack

nioh2

RePack

RDR2

RePack

NEED FOR SPEED™ PAYBACK

RePack

скачать торрент

Кинопоиск HD

Острые козырьки 6 сезон

6 сезон

FAR CRY 6

RePack

скачать торрент

Лицензия

скачать торрент

MVO

1

1 сезон

скачать торрент

1 сезон

скачать торрент

Лицензия

  

Телесериалы Marvel: Коллекция / Marvel Television Series: Collection [2013 - 2020, фантастика, боевик, триллер, приключения, WEB-DLRip - HEVC 1080p 10 bit 60 FPS, Дубляж, MVO]

Телесериалы Marvel: Коллекция через торрент pb.wtf

Раздают: 1 [ 0 KB/s ]
Размер: 492.17 GB | Добавлен: 6 мес. назад | Торрент скачан:2 раза
| Скачать | Поддержите нас   

23-07-2022 13:08 Телесериалы Marvel: Коллекция Скачать торрент  

Marvel Television


Marvel's Agent Carter
«Sometimes the best man for the job... is a woman»

Информация Описание:
Название: Агент Картер
Оригинальное название: Agent Carter
Год выхода: 2015 – 2016
Жанр: Фантастика, боевик, приключения, криминал, драма
Режиссер: уис Д`Эспозито, Питер Лето, Джо Руссо, Скотт Уинант, Стивен Уильямс (II)
В ролях: Хейли Этвелл, Кайл Борнхеймер, Меган Фэй, Линдси Фонсека, Бриджет Риган, Ши Уигхэм, Александр Кэрролл, Лесли Бун, Джеймс Хеберт, Джеймс Д`Арси, Джеймс Фрейн, Энвер Гьокай, Чад Майкл Мюррэй, Джеймс Урбаняк, Ясмин Акер, Джеффри Дэвид Андерсон, Грег Брайан, Кэйтлин Кармайкл, Рэй Уайз, Андре Ройо, Доминик Купер
Описание: История Пегги Картер. В 1946 году мир нанес Пегги серьезный удар, когда она оказывается в неудобном для нее положении с возвращением домой мужчин со сражений за границей. Работая на секретную организацию СНР (Стратегический Научный Резерв), Пегги должна найти баланс между административной работой и секретными миссиями для Говарда Старка, одновременно пытаясь жить нормальной жизнью одинокой женщины в Америке после утраты любви всей ее жизни — Стива Роджерса.


Страна: США
Студия: ABC Studios, Marvel Studios Inc.
Продолжительность: 18 x ~ 00:41:00
Перевод: Дублированный | Невафильм
Субтитры: русские |
Навигация по главам: нет
Информация о файле:
Качество: WEB-DLRip - HEVC 1080p Rip by DD2D3
Формат: MKV
Видео: V_MPEGH/ISO/HEVC; 1920x1080 (16:9); 3649 Kbps; 60 fps; 0,029 bpp
Аудио: русский; AC3; 192 Kbps; CBR; 2 ch ||
Доп. информация: нет

Общее
Уникальный идентификатор : 237281340921229741168356307993479145814 (0xB282B95642429BFE82D3967561B4E956)
Полное имя : E:\Marvel Television Series (2013 - 2020) WEB-DLRip - HEVC 1080p 10 bit 60 FPS\Marvel Heroes\Marvel's Agent Carter (2015 - 2016) WEB-DLRip - HEVC 1080p 10 bit 60 FPS\Season 1. Series 1 - 8 of 8.mkv
Формат : Matroska
Версия формата : Version 2
Размер файла : 1,17 Гбайт
Продолжительность : 42 м. 37 с.
Общий поток : 3 920 Кбит/сек
Название фильма : Rip by from DD2D3
Дата кодирования : UTC 2022-07-23 08:37:46
Программа кодирования : mkvmerge v6.9.1 ('Blue Panther') 32bit built on Apr 18 2014 18:15:44
Библиотека кодирования : libebml v1.3.0 + libmatroska v1.4.1
Attachments : poster

Видео
Идентификатор : 1
Формат : HEVC
Формат/Информация : High Efficiency Video Coding
Профиль формата : Main [email protected]@Main
Идентификатор кодека : V_MPEGH/ISO/HEVC
Продолжительность : 42 м. 37 с.
Битрейт : 3 650 Кбит/сек
Ширина : 1 920 пикселей
Высота : 1 080 пикселей
Соотношение сторон : 16:9
Режим частоты кадров : Постоянный
Частота кадров : 60,000 кадров/сек
Цветовое пространство : YUV
Субдискретизация насыщенности : 4:2:0
Битовая глубина : 10 бит
Бит/(Пиксели*Кадры) : 0.029
Размер потока : 1,09 Гбайт (93%)
Default : Да
Forced : Нет
Цветовой диапазон : Limited
Основные цвета : BT.709
Характеристики трансфера : BT.709
Коэффициенты матрицы : BT.709

Аудио
Идентификатор : 2
Формат : AC-3
Формат/Информация : Audio Coding 3
Коммерческое название : Dolby Digital
Идентификатор кодека : A_AC3
Продолжительность : 42 м. 37 с.
Вид битрейта : Постоянный
Битрейт : 192 Кбит/сек
Каналы : 2 канала
Channel layout : L R
Частота : 48,0 КГц
Частота кадров : 31,250 кадров/сек (1536 SPF)
Метод сжатия : С потерями
Размер потока : 58,5 Мбайт (5%)
Заголовок : Дублированный - НеваФильм
Язык : Russian
Service kind : Complete Main
Default : Да
Forced : Нет

Текст
Идентификатор : 3
Формат : UTF-8
Идентификатор кодека : S_TEXT/UTF8
Идентификатор кодека/Информация : UTF-8 Plain Text
Язык : Russian
Default : Нет
Forced : Нет


Marvel's Inhumans
«A Marvel television series»

Информация Описание:
Название: Сверхлюди
Оригинальное название: Marvel's Inhumans
Год выхода: 2017
Жанр: Фантастика, боевик, приключения, криминал, драма
Режиссер: Роэль Рейн, Крис Фишер, Билл Джирхарт
В ролях: Соня Балморес, Изабель Корниш, Эме Иквуакор, Кен Люн, Майк Мо, Энсон Маунт, Иван Реон, Серинда Свон, Эллен Воглом, Генри Иэн Кьюсик
Описание: История Королевской семьи, принадлежащей к расе Сверхлюдей. Вследствие военного переворота члены королевской фамилии под предводительством Чёрного Грома вынуждены покинуть свой дом в лунном городе Аттилан и бежать на острова, как в дальнейшем оказывается — Гавайи, где им предстоит спасать не только себя, но и весь мир от гибели.


Страна: США
Студия: ABC Studios, Marvel Studios Inc.
Продолжительность: ~ 00:43:00
Перевод: Профессиональный многоголосый | LostFilm
Перевод: Профессиональный многоголосый | NewStudio
Субтитры: нет |
Навигация по главам: нет
Информация о файле:
Качество: WEB-DLRip - HEVC 1080p Rip by DD2D3
Формат: MKV
Видео: V_MPEGH/ISO/HEVC; 1920x1080 (16:9); 4999 Kbps; 59,940 fps; 0,040 bpp
Аудио: русский; AC3; 640 Kbps; CBR; 6 ch ||
Аудио: русский; AC3; 384 Kbps; CBR; 6 ch ||
Доп. информация: нет

Общее
Уникальный идентификатор : 249941072870541591511192247044845528481 (0xBC08E64FF1EF855499970170F21EE5A1)
Полное имя : E:\Marvel Television Series (2013 - 2020) WEB-DLRip - HEVC 1080p 10 bit 60 FPS\Marvel Heroes\Marvel's Inhumans (2017) WEB-DLRip - HEVC 1080p 10 bit 60 FPS\Season 1. Series 1 - 8 of 8.mkv
Формат : Matroska
Версия формата : Version 4
Размер файла : 1,79 Гбайт
Продолжительность : 42 м. 29 с.
Общий поток : 6 034 Кбит/сек
Название фильма : Rip by from DD2D3
Дата кодирования : UTC 2021-08-14 17:34:51
Программа кодирования : mkvmerge v10.0.0 ('To Drown In You') 32bit
Библиотека кодирования : libebml v1.3.4 + libmatroska v1.4.5
Attachments : poster

Видео
Идентификатор : 1
Формат : HEVC
Формат/Информация : High Efficiency Video Coding
Профиль формата : Main [email protected]@Main
Идентификатор кодека : V_MPEGH/ISO/HEVC
Продолжительность : 42 м. 29 с.
Битрейт : 5 000 Кбит/сек
Ширина : 1 920 пикселей
Высота : 1 080 пикселей
Соотношение сторон : 16:9
Режим частоты кадров : Постоянный
Частота кадров : 59,940 (60000/1001) кадров/сек
Цветовое пространство : YUV
Субдискретизация насыщенности : 4:2:0
Битовая глубина : 10 бит
Бит/(Пиксели*Кадры) : 0.040
Размер потока : 1,48 Гбайт (83%)
Библиотека кодирования : x265 2.3+33-0b7d54dbb71a87a0:[Windows][MSVC 1800][64 bit] 10bit: KG7x [x265.ru]
Настройки программы : cpuid=1173503 / frame-threads=2 / numa-pools=4 / wpp / no-pmode / no-pme / no-psnr / no-ssim / log-level=2 / input-csp=1 / input-res=1920x1080 / interlace=0 / total-frames=152791 / level-idc=41 / high-tier=1 / uhd-bd=0 / ref=3 / no-allow-non-conformance / no-repeat-headers / annexb / no-aud / no-hrd / info / hash=0 / no-temporal-layers / open-gop / min-keyint=25 / keyint=250 / bframes=4 / b-adapt=2 / b-pyramid / bframe-bias=0 / rc-lookahead=20 / lookahead-slices=6 / scenecut=40 / no-intra-refresh / ctu=64 / min-cu-size=8 / no-rect / no-amp / max-tu-size=32 / tu-inter-depth=1 / tu-intra-depth=1 / limit-tu=0 / rdoq-level=0 / dynamic-rd=0.00 / no-ssim-rd / signhide / no-tskip / nr-intra=0 / nr-inter=0 / no-constrained-intra / strong-intra-smoothing / max-merge=2 / limit-refs=3 / no-limit-modes / me=1 / subme=2 / merange=57 / temporal-mvp / weightp / no-weightb / no-analyze-src-pics / deblock=0:0 / sao / no-sao-non-deblock / rd=3 / no-early-skip / rskip / no-fast-intra / no-tskip-fast / no-cu-lossless / no-b-intra / rdpenalty=0 / psy-rd=2.00 / psy-rdoq=0.00 / no-rd-refine / analysis-mode=0 / no-lossless / cbqpoffs=0 / crqpoffs=0 / rc=abr / bitrate=5000 / qcomp=0.60 / qpstep=4 / stats-write=0 / stats-read=2 / cplxblur=20.0 / qblur=0.5 / ipratio=1.40 / pbratio=1.30 / aq-mode=1 / aq-strength=1.00 / cutree / zone-count=0 / no-strict-cbr / qg-size=32 / no-rc-grain / qpmax=69 / qpmin=0 / sar=1 / overscan=0 / videoformat=5 / range=0 / colorprim=2 / transfer=2 / colormatrix=2 / chromaloc=0 / display-window=0 / max-cll=0,0 / min-luma=0 / max-luma=1023 / log2-max-poc-lsb=8 / vui-timing-info / vui-hrd-info / slices=1 / opt-qp-pps / opt-ref-list-length-pps / no-multi-pass-opt-rps / scenecut-bias=0.05 / no-opt-cu-delta-qp / no-aq-motion / no-hdr / no-hdr-opt / refine-level=5 / no-limit-sao
Default : Да
Forced : Нет

Аудио #1
Идентификатор : 2
Формат : AC-3
Формат/Информация : Audio Coding 3
Коммерческое название : Dolby Digital
Идентификатор кодека : A_AC3
Продолжительность : 42 м. 29 с.
Вид битрейта : Постоянный
Битрейт : 640 Кбит/сек
Каналы : 6 каналов
Channel layout : L R C LFE Ls Rs
Частота : 48,0 КГц
Частота кадров : 31,250 кадров/сек (1536 SPF)
Метод сжатия : С потерями
Размер потока : 194 Мбайт (11%)
Заголовок : LostFilm
Язык : Russian
Service kind : Complete Main
Default : Нет
Forced : Нет

Аудио #2
Идентификатор : 3
Формат : AC-3
Формат/Информация : Audio Coding 3
Коммерческое название : Dolby Digital
Идентификатор кодека : A_AC3
Продолжительность : 42 м. 29 с.
Вид битрейта : Постоянный
Битрейт : 384 Кбит/сек
Каналы : 6 каналов
Channel layout : L R C LFE Ls Rs
Частота : 48,0 КГц
Частота кадров : 31,250 кадров/сек (1536 SPF)
Метод сжатия : С потерями
Размер потока : 117 Мбайт (6%)
Заголовок : NewStudio
Язык : Russian
Service kind : Complete Main
Default : Да
Forced : Нет



Marvel's Daredevil
«The man without fear»

Информация Описание:
Название: Сорвиголова
Оригинальное название: Daredevil
Год выхода: 2015 – 2018
Жанр: Фантастика, боевик, драма, криминал
Режиссер: Фил Абрахам, Фэррен Блэкберн, Стивен С. Денайт, Гай Ферлэнд
В ролях: Чарли Кокс, Дебора Энн Уолл, Элден Хенсон, Розарио Доусон, Винсент Д’Онофрио, Айелет Зурер и др.
Описание: В результате несчастного случая юный Мэтт Мердок теряет зрение, но зато все остальные его чувства усиливаются в десятки раз. Повзрослев, Мердок понимает, что хочет посвятить свою жизнь защите людей и борьбе с преступностью. Днем он — успешный адвокат, а ночью — мститель в маске по прозвищу Сорвиголова.


Страна: США
Студия: ABC Studios, Marvel Studios Inc.
Продолжительность: ~ 00:53:00
Перевод: Профессиональный (многоголосый закадровый) LostFilm
Перевод: Профессиональный (многоголосый закадровый) NewStudio
Субтитры: русские |
Навигация по главам: нет
Информация о файле:
Качество: WEB-DLRip - HEVC 1080p Rip by DD2D3
Формат: MKV
Видео: V_MPEGH/ISO/HEVC; 1920x1080 (16:9); 4896 Kbps; 59,940 fps; 0,039 bpp
Аудио: русский; AC3; 384 Kbps; CBR; 6 ch ||
Аудио: русский; AC3; 384 Kbps; CBR; 6 ch ||
Доп. информация: нет

Общее
Уникальный идентификатор : 194181760118082132354625001981618094669 (0x92160BF106CC41FFB2E5AA426F0B024D)
Полное имя : E:\Marvel Television Series (2013 - 2020) WEB-DLRip - HEVC 1080p 10 bit 60 FPS\The Defenders Saga\Marvel's Daredevil (2015 - 2018) WEB-DLRip - HEVC 1080p 10 bit 60 FPS\Season 1. Series 1 - 13 of 13.mkv
Формат : Matroska
Версия формата : Version 2
Размер файла : 2,13 Гбайт
Продолжительность : 52 м. 50 с.
Общий поток : 5 780 Кбит/сек
Название фильма : Rip by from DD2D3
Дата кодирования : UTC 2022-01-28 18:06:04
Программа кодирования : mkvmerge v7.8.0 ('River Man') 32bit built on Apr 3 2015 12:11:22
Библиотека кодирования : libebml v1.3.1 + libmatroska v1.4.2
Attachments : poster

Видео
Идентификатор : 1
Формат : HEVC
Формат/Информация : High Efficiency Video Coding
Профиль формата : Main [email protected]@Main
Идентификатор кодека : V_MPEGH/ISO/HEVC
Продолжительность : 52 м. 50 с.
Битрейт : 4 897 Кбит/сек
Ширина : 1 920 пикселей
Высота : 1 080 пикселей
Соотношение сторон : 16:9
Режим частоты кадров : Постоянный
Частота кадров : 59,940 (60000/1001) кадров/сек
Цветовое пространство : YUV
Субдискретизация насыщенности : 4:2:0
Битовая глубина : 10 бит
Бит/(Пиксели*Кадры) : 0.039
Размер потока : 1,81 Гбайт (85%)
Библиотека кодирования : x265 3.5+10-82786fccc:[Windows][GCC 11.1.0][64 bit] 10bit
Настройки программы : cpuid=1111039 / frame-threads=2 / numa-pools=4 / wpp / no-pmode / no-pme / no-psnr / no-ssim / log-level=2 / input-csp=1 / input-res=1920x1080 / interlace=0 / total-frames=190063 / level-idc=41 / high-tier=1 / uhd-bd=0 / ref=3 / no-allow-non-conformance / no-repeat-headers / annexb / no-aud / no-eob / no-eos / no-hrd / info / hash=0 / no-temporal-layers / open-gop / min-keyint=25 / keyint=250 / gop-lookahead=0 / bframes=4 / b-adapt=2 / b-pyramid / bframe-bias=0 / rc-lookahead=20 / lookahead-slices=6 / scenecut=40 / hist-scenecut=0 / radl=0 / no-splice / no-intra-refresh / ctu=64 / min-cu-size=8 / no-rect / no-amp / max-tu-size=32 / tu-inter-depth=1 / tu-intra-depth=1 / limit-tu=0 / rdoq-level=0 / dynamic-rd=0.00 / no-ssim-rd / signhide / no-tskip / nr-intra=0 / nr-inter=0 / no-constrained-intra / strong-intra-smoothing / max-merge=3 / limit-refs=1 / no-limit-modes / me=2 / subme=5 / merange=57 / temporal-mvp / no-frame-dup / no-hme / weightp / no-weightb / no-analyze-src-pics / deblock=0:0 / no-sao / no-sao-non-deblock / rd=3 / selective-sao=0 / early-skip / no-rskip / no-fast-intra / no-tskip-fast / no-cu-lossless / b-intra / no-splitrd-skip / rdpenalty=0 / psy-rd=4.00 / psy-rdoq=0.00 / no-rd-refine / no-lossless / cbqpoffs=0 / crqpoffs=0 / rc=abr / bitrate=5000 / qcomp=0.60 / qpstep=1 / stats-write=0 / stats-read=2 / cplxblur=20.0 / qblur=0.5 / ipratio=1.10 / pbratio=1.00 / aq-mode=0 / aq-strength=0.00 / no-cutree / zone-count=0 / no-strict-cbr / qg-size=64 / rc-grain / qpmax=69 / qpmin=0 / const-vbv / sar=1 / overscan=0 / videoformat=5 / range=0 / colorprim=2 / transfer=2 / colormatrix=2 / chromaloc=0 / display-window=0 / cll=0,0 / min-luma=0 / max-luma=1023 / log2-max-poc-lsb=8 / vui-timing-info / vui-hrd-info / slices=1 / no-opt-qp-pps / no-opt-ref-list-length-pps / no-multi-pass-opt-rps / scenecut-bias=0.05 / hist-threshold=0.03 / no-opt-cu-delta-qp / no-aq-motion / no-hdr10 / no-hdr10-opt / no-dhdr10-opt / no-idr-recovery-sei / analysis-reuse-level=0 / analysis-save-reuse-level=0 / analysis-load-reuse-level=0 / scale-factor=0 / refine-intra=0 / refine-inter=0 / refine-mv=1 / refine-ctu-distortion=0 / no-limit-sao / ctu-info=0 / no-lowpass-dct / refine-analysis-type=0 / copy-pic=1 / max-ausize-factor=1.0 / no-dynamic-refine / no-single-sei / no-hevc-aq / no-svt / no-field / qp-adaptation-range=1.00 / scenecut-aware-qp=0conformance-window-offsets / right=0 / bottom=0 / decoder-max-rate=0 / no-vbv-live-multi-pass
Default : Да
Forced : Нет

Аудио #1
Идентификатор : 2
Формат : AC-3
Формат/Информация : Audio Coding 3
Коммерческое название : Dolby Digital
Идентификатор кодека : A_AC3
Продолжительность : 52 м. 50 с.
Вид битрейта : Постоянный
Битрейт : 384 Кбит/сек
Каналы : 6 каналов
Channel layout : L R C LFE Ls Rs
Частота : 48,0 КГц
Частота кадров : 31,250 кадров/сек (1536 SPF)
Метод сжатия : С потерями
Размер потока : 145 Мбайт (7%)
Заголовок : LostFilm
Язык : Russian
Service kind : Complete Main
Default : Да
Forced : Нет
Statistics Tags Issue : mkvmerge v7.9.0 ('Birds') 64bit 2015-06-07 08:48:35 / mkvmerge v7.8.0 ('River Man') 32bit built on Apr 3 2015 12:11:22 2022-01-28 18:06:04
FromStats_BitRate : 384000
FromStats_Duration : 00:52:50.944000000
FromStats_FrameCount : 99092
FromStats_StreamSize : 152205312

Аудио #2
Идентификатор : 3
Формат : AC-3
Формат/Информация : Audio Coding 3
Коммерческое название : Dolby Digital
Идентификатор кодека : A_AC3
Продолжительность : 52 м. 50 с.
Вид битрейта : Постоянный
Битрейт : 384 Кбит/сек
Каналы : 6 каналов
Channel layout : L R C LFE Ls Rs
Частота : 48,0 КГц
Частота кадров : 31,250 кадров/сек (1536 SPF)
Метод сжатия : С потерями
Размер потока : 145 Мбайт (7%)
Заголовок : NewStudio
Язык : Russian
Service kind : Complete Main
Default : Нет
Forced : Нет
Statistics Tags Issue : mkvmerge v7.9.0 ('Birds') 64bit 2015-06-07 08:48:35 / mkvmerge v7.8.0 ('River Man') 32bit built on Apr 3 2015 12:11:22 2022-01-28 18:06:04
FromStats_BitRate : 384000
FromStats_Duration : 00:52:50.944000000
FromStats_FrameCount : 99092
FromStats_StreamSize : 152205312

Текст
Идентификатор : 4
Формат : UTF-8
Идентификатор кодека : S_TEXT/UTF8
Идентификатор кодека/Информация : UTF-8 Plain Text
Заголовок : rus
Язык : Russian
Default : Нет
Forced : Нет
Statistics Tags Issue : mkvmerge v7.9.0 ('Birds') 64bit 2015-06-07 08:48:35 / mkvmerge v7.8.0 ('River Man') 32bit built on Apr 3 2015 12:11:22 2022-01-28 18:06:04
FromStats_BitRate : 106
FromStats_Duration : 00:51:06.467000000
FromStats_FrameCount : 643
FromStats_StreamSize : 40736


Marvel's Iron Fist
«A Marvel television series»

Информация Описание:
Название: Железный кулак
Оригинальное название: Marvel's Iron Fist
Год выхода: 2017 - 2018
Жанр: Фантастика, боевик, приключения, криминал, драма
Режиссер: Стивен Серджик, Джон Дал, Фэррен Блэкберн
В ролях: Финн Джонс, Джессика Хенвик, Джессика Строуп, Дэвид Уэнэм, Розарио Доусон, Рамон Фернандес, Хосе Баэс, Людовик Куто, Тоби Николс, Крэйг Джерати, Доа Моа, Тихуана Рикс, По Шадоу, Йинка Адебойэку, Джастин Блейк, Никита Боголюбов, Николь Бонифачио, Альберто Бонилла, Эммануэль Браун
Описание: Спустя годы после исчезновения Дэниэл Рэнд возвращается в Нью-Йорк и начинает борьбу с криминалом, используя свои невообразимые навыки кунг-фу и способность вызывать силу Железного кулака.


Страна: США
Студия: ABC Studios, Marvel Studios Inc.
Продолжительность: ~ 00:55:00
Перевод: Профессиональный многоголосый | LostFilm
Перевод: Профессиональный многоголосый | NewStudio
Субтитры: нет |
Навигация по главам: нет
Информация о файле:
Качество: WEB-DLRip - HEVC 1080p Rip by DD2D3
Формат: MKV
Видео: V_MPEGH/ISO/HEVC; 1920x1080 (16:9); 5007 Kbps; 59,940 fps; 0,040 bpp
Аудио: русский; AC3; 384 Kbps; CBR; 6 ch ||
Аудио: русский; AC3; 384 Kbps; CBR; 6 ch ||
Доп. информация: нет

Общее
Уникальный идентификатор : 226702397254037372123399352005698688529 (0xAA8D4B25047A73DC9DA4F4F92A8E9611)
Полное имя : E:\Marvel Television Series (2013 - 2020) WEB-DLRip - HEVC 1080p 10 bit 60 FPS\The Defenders Saga\Marvel's Iron Fist (2017 - 2018) WEB-DLRip - HEVC 1080p 10 bit 60 FPS\Season 1. Series 1 - 13 of 13.mkv
Формат : Matroska
Версия формата : Version 4
Размер файла : 2,27 Гбайт
Продолжительность : 56 м. 11 с.
Общий поток : 5 783 Кбит/сек
Название фильма : Rip by from DD2D3
Дата кодирования : UTC 2021-08-09 10:41:18
Программа кодирования : mkvmerge v10.0.0 ('To Drown In You') 32bit
Библиотека кодирования : libebml v1.3.4 + libmatroska v1.4.5
Attachments : poster

Видео
Идентификатор : 1
Формат : HEVC
Формат/Информация : High Efficiency Video Coding
Профиль формата : Main [email protected]@Main
Идентификатор кодека : V_MPEGH/ISO/HEVC
Продолжительность : 56 м. 10 с.
Битрейт : 5 008 Кбит/сек
Ширина : 1 920 пикселей
Высота : 1 080 пикселей
Соотношение сторон : 16:9
Режим частоты кадров : Постоянный
Частота кадров : 59,940 (60000/1001) кадров/сек
Цветовое пространство : YUV
Субдискретизация насыщенности : 4:2:0
Битовая глубина : 10 бит
Бит/(Пиксели*Кадры) : 0.040
Размер потока : 1,96 Гбайт (87%)
Библиотека кодирования : x265 2.3+33-0b7d54dbb71a87a0:[Windows][MSVC 1800][64 bit] 10bit: KG7x [x265.ru]
Настройки программы : cpuid=1173503 / frame-threads=2 / numa-pools=4 / wpp / no-pmode / pme / no-psnr / no-ssim / log-level=2 / input-csp=1 / input-res=1920x1080 / interlace=0 / total-frames=202041 / level-idc=51 / high-tier=1 / uhd-bd=0 / ref=3 / no-allow-non-conformance / no-repeat-headers / annexb / no-aud / no-hrd / info / hash=0 / no-temporal-layers / open-gop / min-keyint=25 / keyint=250 / bframes=4 / b-adapt=2 / b-pyramid / bframe-bias=0 / rc-lookahead=20 / lookahead-slices=6 / scenecut=40 / no-intra-refresh / ctu=64 / min-cu-size=8 / no-rect / no-amp / max-tu-size=32 / tu-inter-depth=1 / tu-intra-depth=1 / limit-tu=0 / rdoq-level=0 / dynamic-rd=0.00 / no-ssim-rd / signhide / no-tskip / nr-intra=0 / nr-inter=0 / no-constrained-intra / strong-intra-smoothing / max-merge=2 / limit-refs=3 / no-limit-modes / me=1 / subme=2 / merange=57 / temporal-mvp / weightp / no-weightb / no-analyze-src-pics / deblock=0:0 / sao / no-sao-non-deblock / rd=3 / no-early-skip / rskip / no-fast-intra / no-tskip-fast / no-cu-lossless / no-b-intra / rdpenalty=0 / psy-rd=2.00 / psy-rdoq=0.00 / no-rd-refine / analysis-mode=0 / no-lossless / cbqpoffs=0 / crqpoffs=0 / rc=abr / bitrate=5000 / qcomp=0.60 / qpstep=4 / stats-write=0 / stats-read=2 / cplxblur=20.0 / qblur=0.5 / ipratio=1.40 / pbratio=1.30 / aq-mode=1 / aq-strength=1.00 / cutree / zone-count=0 / no-strict-cbr / qg-size=32 / no-rc-grain / qpmax=69 / qpmin=0 / sar=1 / overscan=0 / videoformat=5 / range=0 / colorprim=2 / transfer=2 / colormatrix=2 / chromaloc=0 / display-window=0 / max-cll=0,0 / min-luma=0 / max-luma=1023 / log2-max-poc-lsb=8 / vui-timing-info / vui-hrd-info / slices=1 / opt-qp-pps / opt-ref-list-length-pps / no-multi-pass-opt-rps / scenecut-bias=0.05 / no-opt-cu-delta-qp / no-aq-motion / no-hdr / no-hdr-opt / refine-level=5 / no-limit-sao
Default : Да
Forced : Нет

Аудио #1
Идентификатор : 2
Формат : AC-3
Формат/Информация : Audio Coding 3
Коммерческое название : Dolby Digital
Идентификатор кодека : A_AC3
Продолжительность : 56 м. 11 с.
Вид битрейта : Постоянный
Битрейт : 384 Кбит/сек
Каналы : 6 каналов
Channel layout : L R C LFE Ls Rs
Частота : 48,0 КГц
Частота кадров : 31,250 кадров/сек (1536 SPF)
Метод сжатия : С потерями
Размер потока : 154 Мбайт (7%)
Заголовок : LostFilm
Язык : Russian
Service kind : Complete Main
Default : Да
Forced : Нет

Аудио #2
Идентификатор : 3
Формат : AC-3
Формат/Информация : Audio Coding 3
Коммерческое название : Dolby Digital
Идентификатор кодека : A_AC3
Продолжительность : 56 м. 11 с.
Вид битрейта : Постоянный
Битрейт : 384 Кбит/сек
Каналы : 6 каналов
Channel layout : L R C LFE Ls Rs
Частота : 48,0 КГц
Частота кадров : 31,250 кадров/сек (1536 SPF)
Метод сжатия : С потерями
Размер потока : 154 Мбайт (7%)
Заголовок : NewStudio
Язык : Russian
Service kind : Complete Main
Default : Нет
Forced : Нет


Marvel's Jessica Jones
«It's time the world knew her name»

Информация Описание:
Название: Джессика Джонс
Оригинальное название: Marvel's Jessica Jones
Год выхода: 2015 - 2019
Жанр: Фантастика, боевик, приключения, криминал, драма
Режиссер: Ута Бризвитц, Розмари Родригез, Саймон Селлан Джоунс
В ролях: Кристен Риттер, Дэвид Теннант, Майк Колтер, Рэйчел Тейлор, Кэрри-Энн Мосс, Эйка Дарвилл, Эрин Мориарти, Уил Трэвэл, Сьюзи Абромейт, Фил Каппадора
Описание: После трагических событий, оборвавших короткую супергеройскую карьеру Джессики Джонс, девушка пытается восстановить свою личную жизнь и свою карьеру частного детектива, расследуя таинственную активность людей со сверхспособностями в Нью-Йорке.


Страна: США
Студия: ABC Studios, Marvel Studios Inc., Tall Girls Productions
Продолжительность: ~ 00:55:00
Перевод: Профессиональный многоголосый | LostFilm
Перевод: Профессиональный многоголосый | NewStudio
Субтитры: русские | Netflix
Навигация по главам: есть
Информация о файле:
Качество: WEB-DLRip - HEVC 1080p Rip by DD2D3
Формат: MKV
Видео: V_MPEGH/ISO/HEVC; 1920x1080 (16:9); 4993 Kbps; 59,940 fps; 0,040 bpp
Аудио: русский; AC3; 640 Kbps; CBR; 6 ch ||
Аудио: русский; AC3; 384 Kbps; CBR; 6 ch ||
Доп. информация: нет

Общее
Уникальный идентификатор : 185627260052635443312289610521745309898 (0x8BA68286618F2675942D335CEB9840CA)
Полное имя : E:\Marvel Television Series (2013 - 2020) WEB-DLRip - HEVC 1080p 10 bit 60 FPS\The Defenders Saga\Marvel's Jessica Jones (2015 - 2019) WEB-DLRip - HEVC 1080p 10 bit 60 FPS\Season 1. Series 1 - 13 of 13.mkv
Формат : Matroska
Версия формата : Version 4
Размер файла : 2,19 Гбайт
Продолжительность : 52 м. 1 с.
Общий поток : 6 020 Кбит/сек
Название фильма : Rip by from DD2D3
Дата кодирования : UTC 2021-09-12 08:47:11
Программа кодирования : mkvmerge v10.0.0 ('To Drown In You') 32bit
Библиотека кодирования : libebml v1.3.4 + libmatroska v1.4.5
Attachments : poster

Видео
Идентификатор : 1
Формат : HEVC
Формат/Информация : High Efficiency Video Coding
Профиль формата : Main [email protected]@Main
Идентификатор кодека : V_MPEGH/ISO/HEVC
Продолжительность : 51 м. 56 с.
Битрейт : 4 994 Кбит/сек
Ширина : 1 920 пикселей
Высота : 1 080 пикселей
Соотношение сторон : 16:9
Режим частоты кадров : Постоянный
Частота кадров : 59,940 (60000/1001) кадров/сек
Цветовое пространство : YUV
Субдискретизация насыщенности : 4:2:0
Битовая глубина : 10 бит
Бит/(Пиксели*Кадры) : 0.040
Размер потока : 1,81 Гбайт (83%)
Библиотека кодирования : x265 3.5+10-82786fccc:[Windows][GCC 11.1.0][64 bit] 10bit
Настройки программы : cpuid=1111039 / frame-threads=2 / numa-pools=4 / wpp / no-pmode / pme / no-psnr / no-ssim / log-level=2 / input-csp=1 / input-res=1920x1080 / interlace=0 / total-frames=186826 / level-idc=41 / high-tier=1 / uhd-bd=0 / ref=3 / no-allow-non-conformance / no-repeat-headers / annexb / no-aud / no-eob / no-eos / no-hrd / info / hash=0 / no-temporal-layers / open-gop / min-keyint=25 / keyint=250 / gop-lookahead=0 / bframes=4 / b-adapt=2 / b-pyramid / bframe-bias=0 / rc-lookahead=20 / lookahead-slices=6 / scenecut=40 / hist-scenecut=0 / radl=0 / no-splice / no-intra-refresh / ctu=64 / min-cu-size=8 / no-rect / no-amp / max-tu-size=32 / tu-inter-depth=1 / tu-intra-depth=1 / limit-tu=0 / rdoq-level=0 / dynamic-rd=0.00 / no-ssim-rd / signhide / no-tskip / nr-intra=0 / nr-inter=0 / no-constrained-intra / strong-intra-smoothing / max-merge=3 / limit-refs=1 / no-limit-modes / me=1 / subme=2 / merange=57 / temporal-mvp / no-frame-dup / no-hme / weightp / no-weightb / no-analyze-src-pics / deblock=0:0 / sao / no-sao-non-deblock / rd=3 / selective-sao=4 / early-skip / rskip / no-fast-intra / no-tskip-fast / no-cu-lossless / b-intra / no-splitrd-skip / rdpenalty=0 / psy-rd=2.00 / psy-rdoq=0.00 / no-rd-refine / no-lossless / cbqpoffs=0 / crqpoffs=0 / rc=abr / bitrate=5000 / qcomp=0.60 / qpstep=4 / stats-write=0 / stats-read=2 / cplxblur=20.0 / qblur=0.5 / ipratio=1.40 / pbratio=1.30 / aq-mode=2 / aq-strength=1.00 / cutree / zone-count=0 / no-strict-cbr / qg-size=32 / no-rc-grain / qpmax=69 / qpmin=0 / no-const-vbv / sar=1 / overscan=0 / videoformat=5 / range=0 / colorprim=2 / transfer=2 / colormatrix=2 / chromaloc=0 / display-window=0 / cll=0,0 / min-luma=0 / max-luma=1023 / log2-max-poc-lsb=8 / vui-timing-info / vui-hrd-info / slices=1 / no-opt-qp-pps / no-opt-ref-list-length-pps / no-multi-pass-opt-rps / scenecut-bias=0.05 / hist-threshold=0.03 / no-opt-cu-delta-qp / no-aq-motion / no-hdr10 / no-hdr10-opt / no-dhdr10-opt / no-idr-recovery-sei / analysis-reuse-level=0 / analysis-save-reuse-level=0 / analysis-load-reuse-level=0 / scale-factor=0 / refine-intra=0 / refine-inter=0 / refine-mv=1 / refine-ctu-distortion=0 / no-limit-sao / ctu-info=0 / no-lowpass-dct / refine-analysis-type=0 / copy-pic=1 / max-ausize-factor=1.0 / no-dynamic-refine / no-single-sei / no-hevc-aq / no-svt / no-field / qp-adaptation-range=1.00 / scenecut-aware-qp=0conformance-window-offsets / right=0 / bottom=0 / decoder-max-rate=0 / no-vbv-live-multi-pass
Default : Да
Forced : Нет

Аудио #1
Идентификатор : 2
Формат : AC-3
Формат/Информация : Audio Coding 3
Коммерческое название : Dolby Digital
Идентификатор кодека : A_AC3
Продолжительность : 52 м. 1 с.
Вид битрейта : Постоянный
Битрейт : 640 Кбит/сек
Каналы : 6 каналов
Channel layout : L R C LFE Ls Rs
Частота : 48,0 КГц
Частота кадров : 31,250 кадров/сек (1536 SPF)
Метод сжатия : С потерями
Размер потока : 238 Мбайт (11%)
Заголовок : LostFilm
Язык : Russian
Service kind : Complete Main
Default : Нет
Forced : Нет

Аудио #2
Идентификатор : 3
Формат : AC-3
Формат/Информация : Audio Coding 3
Коммерческое название : Dolby Digital
Идентификатор кодека : A_AC3
Продолжительность : 51 м. 51 с.
Вид битрейта : Постоянный
Битрейт : 384 Кбит/сек
Каналы : 6 каналов
Channel layout : L R C LFE Ls Rs
Частота : 48,0 КГц
Частота кадров : 31,250 кадров/сек (1536 SPF)
Метод сжатия : С потерями
Задержка видео : 601 мс.
Размер потока : 142 Мбайт (6%)
Заголовок : NewStudio
Язык : Russian
Service kind : Complete Main
Default : Да
Forced : Нет

Текст
Идентификатор : 4
Формат : UTF-8
Идентификатор кодека : S_TEXT/UTF8
Идентификатор кодека/Информация : UTF-8 Plain Text
Продолжительность : 50 м. 28 с.
Битрейт : 67 бит/сек
Count of elements : 569
Размер потока : 25,0 Кбайт (0%)
Заголовок : Netflix
Язык : Russian
Default : Нет
Forced : Нет

Меню
00:00:00.000 : en:00:00:00.000
00:01:24.584 : en:00:01:24.584
00:10:35.802 : en:00:10:35.802
00:19:44.016 : en:00:19:44.016
00:27:10.629 : en:00:27:10.629
00:37:10.728 : en:00:37:10.728
00:50:42.539 : en:00:50:42.539


Marvel's Luke Cage
«Sweet Christmas!»

Информация Описание:
Название: Люк Кейдж
Оригинальное название: Marvel's Luke Cage
Год выхода: 2016 - 2018
Жанр: Фантастика, боевик, приключения, криминал, драма
Режиссер: Пол МакГиган, Энди Годдар, Марк Йобст
В ролях: Махершала Али, Майк Колтер, Фрэнки Фэйзон, Эрик Ларей Харви, Дариус Калеб, Симона Кук, Тео Росси, Фрэнк Уэйли
Описание: Получив суперсилу в результате сорванного эксперимента, ошибочно обвиненный мужчина сбегает из тюрьмы, чтобы стать наемным супергероем.


Страна: США
Студия: ABC Studios, Marvel Studios Inc., Tall Girls Productions
Продолжительность: ~ 00:55:00
Перевод: Профессиональный многоголосый | LostFilm
Перевод: Профессиональный многоголосый | NewStudio
Субтитры: русские | форс
Навигация по главам: нет
Информация о файле:
Качество: WEB-DLRip - HEVC 1080p Rip by DD2D3
Формат: MKV
Видео: V_MPEGH/ISO/HEVC; 1920x1080 (16:9); 4995 Kbps; 59,940 fps; 0,040 bpp
Аудио: русский; AC3; 384 Kbps; CBR; 2 ch ||
Аудио: русский; AC3; 384 Kbps; CBR; 6 ch ||
Доп. информация: нет

Общее
Уникальный идентификатор : 219168750035316661656901253470366548228 (0xA4E25DA8C8C6A45CB60014B451294104)
Полное имя : E:\Marvel Television Series (2013 - 2020) WEB-DLRip - HEVC 1080p 10 bit 60 FPS\The Defenders Saga\Marvel's Luke Cage (2016 - 2018) WEB-DLRip - HEVC 1080p 10 bit 60 FPS\Season 1. Series 1 - 13 of 13.mkv
Формат : Matroska
Версия формата : Version 4
Размер файла : 2,18 Гбайт
Продолжительность : 54 м. 2 с.
Общий поток : 5 775 Кбит/сек
Название фильма : Rip by from DD2D3
Дата кодирования : UTC 2021-07-11 08:46:52
Программа кодирования : mkvmerge v10.0.0 ('To Drown In You') 32bit
Библиотека кодирования : libebml v1.3.4 + libmatroska v1.4.5
Attachments : poster

Видео
Идентификатор : 1
Формат : HEVC
Формат/Информация : High Efficiency Video Coding
Профиль формата : Main [email protected]@Main
Идентификатор кодека : V_MPEGH/ISO/HEVC
Продолжительность : 54 м. 2 с.
Битрейт : 4 996 Кбит/сек
Ширина : 1 920 пикселей
Высота : 1 080 пикселей
Соотношение сторон : 16:9
Режим частоты кадров : Постоянный
Частота кадров : 59,940 (60000/1001) кадров/сек
Цветовое пространство : YUV
Субдискретизация насыщенности : 4:2:0
Битовая глубина : 10 бит
Бит/(Пиксели*Кадры) : 0.040
Размер потока : 1,89 Гбайт (87%)
Библиотека кодирования : x265 2.3+33-0b7d54dbb71a87a0:[Windows][MSVC 1800][64 bit] 10bit: KG7x [x265.ru]
Настройки программы : cpuid=1173503 / frame-threads=2 / numa-pools=4 / wpp / no-pmode / no-pme / no-psnr / no-ssim / log-level=2 / input-csp=1 / input-res=1920x1080 / interlace=0 / total-frames=194376 / level-idc=41 / high-tier=1 / uhd-bd=0 / ref=3 / no-allow-non-conformance / no-repeat-headers / annexb / no-aud / no-hrd / info / hash=0 / no-temporal-layers / open-gop / min-keyint=25 / keyint=250 / bframes=4 / b-adapt=2 / b-pyramid / bframe-bias=0 / rc-lookahead=20 / lookahead-slices=6 / scenecut=40 / no-intra-refresh / ctu=64 / min-cu-size=8 / no-rect / no-amp / max-tu-size=32 / tu-inter-depth=1 / tu-intra-depth=1 / limit-tu=0 / rdoq-level=0 / dynamic-rd=0.00 / no-ssim-rd / signhide / no-tskip / nr-intra=0 / nr-inter=0 / no-constrained-intra / strong-intra-smoothing / max-merge=2 / limit-refs=3 / no-limit-modes / me=1 / subme=2 / merange=57 / temporal-mvp / weightp / no-weightb / no-analyze-src-pics / deblock=0:0 / sao / no-sao-non-deblock / rd=3 / no-early-skip / rskip / no-fast-intra / no-tskip-fast / no-cu-lossless / no-b-intra / rdpenalty=0 / psy-rd=2.00 / psy-rdoq=0.00 / no-rd-refine / analysis-mode=0 / no-lossless / cbqpoffs=0 / crqpoffs=0 / rc=abr / bitrate=5000 / qcomp=0.60 / qpstep=4 / stats-write=0 / stats-read=2 / cplxblur=20.0 / qblur=0.5 / ipratio=1.40 / pbratio=1.30 / aq-mode=1 / aq-strength=1.00 / cutree / zone-count=0 / no-strict-cbr / qg-size=32 / no-rc-grain / qpmax=69 / qpmin=0 / sar=1 / overscan=0 / videoformat=5 / range=0 / colorprim=2 / transfer=2 / colormatrix=2 / chromaloc=0 / display-window=0 / max-cll=0,0 / min-luma=0 / max-luma=1023 / log2-max-poc-lsb=8 / vui-timing-info / vui-hrd-info / slices=1 / opt-qp-pps / opt-ref-list-length-pps / no-multi-pass-opt-rps / scenecut-bias=0.05 / no-opt-cu-delta-qp / no-aq-motion / no-hdr / no-hdr-opt / refine-level=5 / no-limit-sao
Default : Да
Forced : Нет

Аудио #1
Идентификатор : 2
Формат : AC-3
Формат/Информация : Audio Coding 3
Коммерческое название : Dolby Digital
Идентификатор кодека : A_AC3
Продолжительность : 54 м. 2 с.
Вид битрейта : Постоянный
Битрейт : 384 Кбит/сек
Каналы : 2 канала
Channel layout : L R
Частота : 48,0 КГц
Частота кадров : 31,250 кадров/сек (1536 SPF)
Метод сжатия : С потерями
Размер потока : 148 Мбайт (7%)
Заголовок : LostFilm
Язык : Russian
Service kind : Complete Main
Default : Да
Forced : Нет

Аудио #2
Идентификатор : 3
Формат : AC-3
Формат/Информация : Audio Coding 3
Коммерческое название : Dolby Digital
Идентификатор кодека : A_AC3
Продолжительность : 54 м. 2 с.
Вид битрейта : Постоянный
Битрейт : 384 Кбит/сек
Каналы : 6 каналов
Channel layout : L R C LFE Ls Rs
Частота : 48,0 КГц
Частота кадров : 31,250 кадров/сек (1536 SPF)
Метод сжатия : С потерями
Размер потока : 148 Мбайт (7%)
Заголовок : NewStudio
Язык : Russian
Service kind : Complete Main
Default : Нет
Forced : Нет

Текст
Идентификатор : 4
Формат : UTF-8
Идентификатор кодека : S_TEXT/UTF8
Идентификатор кодека/Информация : UTF-8 Plain Text
Продолжительность : 970 мс.
Битрейт : 272 бит/сек
Count of elements : 1
Размер потока : 33,0 байт (0%)
Заголовок : форс
Язык : Russian
Default : Да
Forced : Нет


Marvel's The Punisher
«The truth must be taken»

Информация Описание:
Название: Каратель
Оригинальное название: Marvel's The Punisher
Год выхода: 2017 - 2019
Жанр: Фантастика, боевик, приключения, криминал, драма
Режиссер: Джим О’Хенлон, Джереми Уэбб, Джет Уилкинсон, Энди Годдард, Том Шенклэнд
В ролях: Джон Бернтал, Дебора Энн Уолл, Эмбер Роуз Рева, Бен Барнс, Джейсон Р. Мур, Эбон Мосс-Бакрак, Флориана Лима, Джош Стюарт, Джорджиа Уигэм, Джейми Рэй Ньюман, Коби Фрумер, Пол Шульц, Майкл Натансон, Ройс Джонсон, Тони Плана, Алекса Давалос, Даниэль Уэббер, Келли Баррет, Рипли Собо, Сэмюэл Гомес, Джордан Мэхоум, Мэри Элизабет Мастрантонио, Аннетт О’Тул, Тери Ривз, Клэнси Браун
Описание: После того, как семья Фрэнка Касла была убита во время перестрелки нескольких банд Нью-Йорка, он решает отомстить и начинает охоту на преступников города. В преступном мире он становится известен как Каратель.


Страна: США
Студия: Marvel Television
Продолжительность: ~ 00:55:00
Перевод: Профессиональный многоголосый | LostFilm
Перевод: Профессиональный многоголосый | NewStudio
Перевод: Профессиональный (двухголосый, закадровый) | Кубик в кубе
Субтитры: русские |
Навигация по главам: нет
Информация о файле:
Качество: WEB-DLRip - HEVC 1080p Rip by DD2D3
Формат: MKV
Видео: V_MPEGH/ISO/HEVC; 1920x1080 (16:9); 5005 Kbps; 59,940 fps; 0,040 bpp
Аудио: русский; AC3; 384 Kbps; CBR; 6 ch ||
Аудио: русский; AAC LC-SBR; 81 Kbps; 2 ch ||
Аудио: русский; AAC LC-SBR; 81 Kbps; 2 ch ||
Доп. информация: нет

Общее
Уникальный идентификатор : 239511226307082815551746651078498582973 (0xB4302F2CB92399929625C7AA82AE01BD)
Полное имя : E:\Marvel Television Series (2013 - 2020) WEB-DLRip - HEVC 1080p 10 bit 60 FPS\The Defenders Saga\Marvel's The Punisher (2017 - 2019) WEB-DLRip - HEVC 1080p 10 bit 60 FPS\Season 1. Series 1 - 13 of 13.mkv
Формат : Matroska
Версия формата : Version 4
Размер файла : 2,00 Гбайт
Продолжительность : 51 м. 23 с.
Общий поток : 5 561 Кбит/сек
Название фильма : Rip by from DD2D3
Дата кодирования : UTC 2021-06-30 09:45:52
Программа кодирования : mkvmerge v10.0.0 ('To Drown In You') 32bit
Библиотека кодирования : libebml v1.3.4 + libmatroska v1.4.5
Обложка : Yes
Attachments : poster / Cover.jpg

Видео
Идентификатор : 1
Формат : HEVC
Формат/Информация : High Efficiency Video Coding
Профиль формата : Main [email protected]@Main
Идентификатор кодека : V_MPEGH/ISO/HEVC
Продолжительность : 51 м. 23 с.
Битрейт : 5 005 Кбит/сек
Ширина : 1 920 пикселей
Высота : 1 080 пикселей
Соотношение сторон : 16:9
Режим частоты кадров : Постоянный
Частота кадров : 59,940 (60000/1001) кадров/сек
Цветовое пространство : YUV
Субдискретизация насыщенности : 4:2:0
Битовая глубина : 10 бит
Бит/(Пиксели*Кадры) : 0.040
Размер потока : 1,80 Гбайт (90%)
Библиотека кодирования : x265 2.3+33-0b7d54dbb71a87a0:[Windows][MSVC 1800][64 bit] 10bit: KG7x [x265.ru]
Настройки программы : cpuid=1173503 / frame-threads=2 / numa-pools=4 / wpp / no-pmode / no-pme / no-psnr / no-ssim / log-level=2 / input-csp=1 / input-res=1920x1080 / interlace=0 / total-frames=184818 / level-idc=41 / high-tier=1 / uhd-bd=0 / ref=3 / no-allow-non-conformance / no-repeat-headers / annexb / no-aud / no-hrd / info / hash=0 / no-temporal-layers / open-gop / min-keyint=25 / keyint=250 / bframes=4 / b-adapt=2 / b-pyramid / bframe-bias=0 / rc-lookahead=20 / lookahead-slices=6 / scenecut=40 / no-intra-refresh / ctu=64 / min-cu-size=8 / no-rect / no-amp / max-tu-size=32 / tu-inter-depth=1 / tu-intra-depth=1 / limit-tu=0 / rdoq-level=0 / dynamic-rd=0.00 / no-ssim-rd / signhide / no-tskip / nr-intra=0 / nr-inter=0 / no-constrained-intra / strong-intra-smoothing / max-merge=2 / limit-refs=3 / no-limit-modes / me=1 / subme=2 / merange=57 / temporal-mvp / weightp / no-weightb / no-analyze-src-pics / deblock=0:0 / sao / no-sao-non-deblock / rd=3 / no-early-skip / rskip / no-fast-intra / no-tskip-fast / no-cu-lossless / no-b-intra / rdpenalty=0 / psy-rd=2.00 / psy-rdoq=0.00 / no-rd-refine / analysis-mode=0 / no-lossless / cbqpoffs=0 / crqpoffs=0 / rc=abr / bitrate=5000 / qcomp=0.60 / qpstep=4 / stats-write=0 / stats-read=2 / cplxblur=20.0 / qblur=0.5 / ipratio=1.40 / pbratio=1.30 / aq-mode=1 / aq-strength=1.00 / cutree / zone-count=0 / no-strict-cbr / qg-size=32 / no-rc-grain / qpmax=69 / qpmin=0 / sar=1 / overscan=0 / videoformat=5 / range=0 / colorprim=2 / transfer=2 / colormatrix=2 / chromaloc=0 / display-window=0 / max-cll=0,0 / min-luma=0 / max-luma=1023 / log2-max-poc-lsb=8 / vui-timing-info / vui-hrd-info / slices=1 / opt-qp-pps / opt-ref-list-length-pps / no-multi-pass-opt-rps / scenecut-bias=0.05 / no-opt-cu-delta-qp / no-aq-motion / no-hdr / no-hdr-opt / refine-level=5 / no-limit-sao
Default : Да
Forced : Нет

Аудио #1
Идентификатор : 2
Формат : AC-3
Формат/Информация : Audio Coding 3
Коммерческое название : Dolby Digital
Идентификатор кодека : A_AC3
Продолжительность : 51 м. 23 с.
Вид битрейта : Постоянный
Битрейт : 384 Кбит/сек
Каналы : 6 каналов
Channel layout : L R C LFE Ls Rs
Частота : 48,0 КГц
Частота кадров : 31,250 кадров/сек (1536 SPF)
Метод сжатия : С потерями
Размер потока : 141 Мбайт (7%)
Заголовок : DD5.1 LostFilm
Язык : Russian
Service kind : Complete Main
Default : Да
Forced : Нет

Аудио #2
Идентификатор : 3
Формат : AAC LC SBR
Формат/Информация : Advanced Audio Codec Low Complexity with Spectral Band Replication
Коммерческое название : HE-AAC
Настройки формата : Explicit
Идентификатор кодека : A_AAC-2
Продолжительность : 51 м. 23 с.
Битрейт : 81,8 Кбит/сек
Каналы : 2 канала
Channel layout : L R
Частота : 48,0 КГц
Частота кадров : 23,438 кадра/сек (2048 SPF)
Метод сжатия : С потерями
Задержка видео : 40 мс.
Размер потока : 30,1 Мбайт (1%)
Заголовок : NewStudio
Язык : Russian
Default : Нет
Forced : Нет

Аудио #3
Идентификатор : 4
Формат : AAC LC SBR
Формат/Информация : Advanced Audio Codec Low Complexity with Spectral Band Replication
Коммерческое название : HE-AAC
Настройки формата : Explicit
Идентификатор кодека : A_AAC-2
Продолжительность : 51 м. 23 с.
Битрейт : 81,0 Кбит/сек
Каналы : 2 канала
Channel layout : L R
Частота : 48,0 КГц
Частота кадров : 23,438 кадра/сек (2048 SPF)
Метод сжатия : С потерями
Задержка видео : 40 мс.
Размер потока : 29,8 Мбайт (1%)
Заголовок : KvK
Язык : Russian
Default : Нет
Forced : Нет

Текст
Идентификатор : 5
Формат : UTF-8
Идентификатор кодека : S_TEXT/UTF8
Идентификатор кодека/Информация : UTF-8 Plain Text
Продолжительность : 48 м. 56 с.
Битрейт : 94 бит/сек
Count of elements : 592
Размер потока : 33,7 Кбайт (0%)
Язык : Russian
Default : Нет
Forced : Нет


Marvel's The Defenders

Информация Описание:
Название: Защитники
Оригинальное название: Marvel's The Defenders
Год выхода: 2017
Жанр: Фантастика, боевик, приключения, криминал, драма
Режиссер: С.Дж. Кларксон, Ута Бризвитц, Питер Хор
В ролях: Финн Джонс, Майк Колтер, Чарли Кокс, Джессика Хенвик, Кристен Риттер, Сигурни Уивер, Элоди Юнг, Розарио Доусон, Бабс Олусанмокун, Элден Хенсон и др.
Описание: Сорвиголова, Джессика Джонс, Люк Кейдж и Железный Кулак объединяются для борьбы с преступностью Нью-Йорка.


Страна: США
Студия: Discovery Communications, Trigger Street Productions
Продолжительность: ~ 00:50:00
Перевод: Профессиональный многоголосый | LostFilm
Перевод: Профессиональный многоголосый | NewStudio
Субтитры: русские |
Навигация по главам: нет
Информация о файле:
Качество: WEB-DLRip - HEVC 1080p Rip by DD2D3
Формат: MKV
Видео: V_MPEGH/ISO/HEVC; 1920x1080 (16:9); 5005 Kbps; 59,940 fps; 0,040 bpp
Аудио: русский; AC3; 384 Kbps; CBR; 6 ch ||
Аудио: русский; AAC LC-SBR; 81 Kbps; 2 ch ||
Аудио: русский; AAC LC-SBR; 81 Kbps; 2 ch ||
Доп. информация: нет

Общее
Уникальный идентификатор : 246288390775742726797383537856171608952 (0xB9496B2E48D251D1A7CC1EBBE51A0B78)
Полное имя : E:\Marvel Television Series (2013 - 2020) WEB-DLRip - HEVC 1080p 10 bit 60 FPS\The Defenders Saga\Marvel's The Defenders (2017) WEB-DLRip - HEVC 1080p 10 bit 60 FPS\Season 1. Series 1 - 8 of 8.mkv
Формат : Matroska
Версия формата : Version 4
Размер файла : 2,08 Гбайт
Продолжительность : 51 м. 43 с.
Общий поток : 5 763 Кбит/сек
Название фильма : Rip by from DD2D3
Дата кодирования : UTC 2021-06-30 08:43:01 / UTC 2017-06-26 17:46:40
Программа кодирования : mkvmerge v10.0.0 ('To Drown In You') 32bit
Библиотека кодирования : libebml v1.3.4 + libmatroska v1.4.5 / Lavf58.0.0
Attachments : poster

Видео
Идентификатор : 1
Формат : HEVC
Формат/Информация : High Efficiency Video Coding
Профиль формата : Main [email protected]@Main
Идентификатор кодека : V_MPEGH/ISO/HEVC
Продолжительность : 51 м. 43 с.
Битрейт : 4 986 Кбит/сек
Ширина : 1 920 пикселей
Высота : 1 080 пикселей
Соотношение сторон : 16:9
Режим частоты кадров : Постоянный
Частота кадров : 59,940 (60000/1001) кадров/сек
Цветовое пространство : YUV
Субдискретизация насыщенности : 4:2:0
Битовая глубина : 10 бит
Бит/(Пиксели*Кадры) : 0.040
Размер потока : 1,80 Гбайт (87%)
Библиотека кодирования : x265 2.3+33-0b7d54dbb71a87a0:[Windows][MSVC 1800][64 bit] 10bit: KG7x [x265.ru]
Настройки программы : cpuid=1173503 / frame-threads=2 / numa-pools=4 / wpp / no-pmode / no-pme / no-psnr / no-ssim / log-level=2 / input-csp=1 / input-res=1920x1080 / interlace=0 / total-frames=186018 / level-idc=41 / high-tier=1 / uhd-bd=0 / ref=3 / no-allow-non-conformance / no-repeat-headers / annexb / no-aud / no-hrd / info / hash=0 / no-temporal-layers / open-gop / min-keyint=25 / keyint=250 / bframes=4 / b-adapt=2 / b-pyramid / bframe-bias=0 / rc-lookahead=20 / lookahead-slices=6 / scenecut=40 / no-intra-refresh / ctu=64 / min-cu-size=8 / no-rect / no-amp / max-tu-size=32 / tu-inter-depth=1 / tu-intra-depth=1 / limit-tu=0 / rdoq-level=0 / dynamic-rd=0.00 / no-ssim-rd / signhide / no-tskip / nr-intra=0 / nr-inter=0 / no-constrained-intra / strong-intra-smoothing / max-merge=2 / limit-refs=3 / no-limit-modes / me=1 / subme=2 / merange=57 / temporal-mvp / weightp / no-weightb / no-analyze-src-pics / deblock=0:0 / sao / no-sao-non-deblock / rd=3 / no-early-skip / rskip / no-fast-intra / no-tskip-fast / no-cu-lossless / no-b-intra / rdpenalty=0 / psy-rd=2.00 / psy-rdoq=0.00 / no-rd-refine / analysis-mode=0 / no-lossless / cbqpoffs=0 / crqpoffs=0 / rc=abr / bitrate=5000 / qcomp=0.60 / qpstep=4 / stats-write=0 / stats-read=2 / cplxblur=20.0 / qblur=0.5 / ipratio=1.40 / pbratio=1.30 / aq-mode=1 / aq-strength=1.00 / cutree / zone-count=0 / no-strict-cbr / qg-size=32 / no-rc-grain / qpmax=69 / qpmin=0 / sar=1 / overscan=0 / videoformat=5 / range=0 / colorprim=2 / transfer=2 / colormatrix=2 / chromaloc=0 / display-window=0 / max-cll=0,0 / min-luma=0 / max-luma=1023 / log2-max-poc-lsb=8 / vui-timing-info / vui-hrd-info / slices=1 / opt-qp-pps / opt-ref-list-length-pps / no-multi-pass-opt-rps / scenecut-bias=0.05 / no-opt-cu-delta-qp / no-aq-motion / no-hdr / no-hdr-opt / refine-level=5 / no-limit-sao
Default : Да
Forced : Нет

Аудио #1
Идентификатор : 2
Формат : AC-3
Формат/Информация : Audio Coding 3
Коммерческое название : Dolby Digital
Идентификатор кодека : A_AC3
Продолжительность : 51 м. 43 с.
Вид битрейта : Постоянный
Битрейт : 384 Кбит/сек
Каналы : 6 каналов
Channel layout : L R C LFE Ls Rs
Частота : 48,0 КГц
Частота кадров : 31,250 кадров/сек (1536 SPF)
Метод сжатия : С потерями
Размер потока : 142 Мбайт (7%)
Заголовок : LostFilm
Язык : Russian
Service kind : Complete Main
Default : Да
Forced : Нет

Аудио #2
Идентификатор : 3
Формат : AC-3
Формат/Информация : Audio Coding 3
Коммерческое название : Dolby Digital
Идентификатор кодека : A_AC3
Продолжительность : 51 м. 43 с.
Вид битрейта : Постоянный
Битрейт : 384 Кбит/сек
Каналы : 6 каналов
Channel layout : L R C LFE Ls Rs
Частота : 48,0 КГц
Частота кадров : 31,250 кадров/сек (1536 SPF)
Метод сжатия : С потерями
Размер потока : 142 Мбайт (7%)
Заголовок : NewStudio
Язык : Russian
Service kind : Complete Main
Default : Нет
Forced : Нет

Текст
Идентификатор : 4
Формат : UTF-8
Идентификатор кодека : S_TEXT/UTF8
Идентификатор кодека/Информация : UTF-8 Plain Text
Продолжительность : 47 м. 8 с.
Битрейт : 96 бит/сек
Count of elements : 559
Размер потока : 33,4 Кбайт (0%)
Язык : Russian
Default : Нет
Forced : Нет



Marvel's Cloak & Dagger

Информация Описание:
Название: Плащ и Кинжал
Оригинальное название: Marvel's Cloak & Dagger
Год выхода: 2018 – 2019
Жанр: Фантастика, боевик, драма, приключения
Режиссер: Алекс Гарсиа Лопес, Питер Хор, Дженнифер Фанг
В ролях: Дерик Августин, Ноэль Рени Берси, Маркус Клэй, Митч Крафт, Майкл Винсент Донован, Дж.Д. Эвермор, Брайан Майкл Холл, Шон Брэдли Хофер, Оливия Холт, Обри Джозеф
Описание: Два подростка обнаруживают у себя новые суперспособности — Тэнди может излучать световые кинжалы, а Тайрон способен облачать людей во тьму. Они быстро понимают, что вместе им лучше, чем порознь, но их чувства друг к другу делают сложный мир еще более запутанным.


Страна: США
Студия: Marvel Television, ABC Signature Studios, Wandering Rocks
Продолжительность: 20 x ~ 00:42:00
Перевод: Дублированный | Невафильм
Субтитры: русские |
Навигация по главам: нет
Информация о файле:
Качество: WEB-DLRip - HEVC 1080p Rip by DD2D3
Формат: MKV
Видео: V_MPEGH/ISO/HEVC; 1920x1080 (16:9); 4999 Kbps; 59,940 fps; 0,040 bpp
Аудио: русский; AC3; 384 Kbps; CBR; 6 ch ||
Доп. информация: нет

Общее
Уникальный идентификатор : 238183009500145088948397073581287711519 (0xB3306107B8859FEC86F9D96D78A8A31F)
Полное имя : E:\Marvel Television Series (2013 - 2020) WEB-DLRip - HEVC 1080p 10 bit 60 FPS\Young Adult\Marvel's Cloak & Dagger (2018 - 2019) WEB-DLRip - HEVC 1080p 10 bit 60 FPS\Season 1. Series 1 - 10 of 10.mkv
Формат : Matroska
Версия формата : Version 4
Размер файла : 1,86 Гбайт
Продолжительность : 49 м. 15 с.
Общий поток : 5 393 Кбит/сек
Название фильма : Rip by from DD2D3
Дата кодирования : UTC 2021-04-18 11:21:49
Программа кодирования : mkvmerge v10.0.0 ('To Drown In You') 32bit
Библиотека кодирования : libebml v1.3.4 + libmatroska v1.4.5
Attachments : poster

Видео
Идентификатор : 1
Формат : HEVC
Формат/Информация : High Efficiency Video Coding
Профиль формата : Main [email protected]@Main
Идентификатор кодека : V_MPEGH/ISO/HEVC
Продолжительность : 49 м. 15 с.
Битрейт : 5 000 Кбит/сек
Ширина : 1 920 пикселей
Высота : 1 080 пикселей
Соотношение сторон : 16:9
Режим частоты кадров : Постоянный
Частота кадров : 59,940 (60000/1001) кадров/сек
Цветовое пространство : YUV
Субдискретизация насыщенности : 4:2:0
Битовая глубина : 10 бит
Бит/(Пиксели*Кадры) : 0.040
Размер потока : 1,72 Гбайт (93%)
Библиотека кодирования : x265 2.3+33-0b7d54dbb71a87a0:[Windows][MSVC 1800][64 bit] 10bit: KG7x [x265.ru]
Настройки программы : cpuid=1173503 / frame-threads=2 / numa-pools=4 / wpp / no-pmode / no-pme / no-psnr / no-ssim / log-level=2 / input-csp=1 / input-res=1920x1080 / interlace=0 / total-frames=177146 / level-idc=41 / high-tier=1 / uhd-bd=0 / ref=3 / no-allow-non-conformance / no-repeat-headers / annexb / no-aud / no-hrd / info / hash=0 / no-temporal-layers / open-gop / min-keyint=25 / keyint=250 / bframes=4 / b-adapt=2 / b-pyramid / bframe-bias=0 / rc-lookahead=20 / lookahead-slices=6 / scenecut=40 / no-intra-refresh / ctu=64 / min-cu-size=8 / no-rect / no-amp / max-tu-size=32 / tu-inter-depth=1 / tu-intra-depth=1 / limit-tu=0 / rdoq-level=0 / dynamic-rd=0.00 / no-ssim-rd / signhide / no-tskip / nr-intra=0 / nr-inter=0 / no-constrained-intra / strong-intra-smoothing / max-merge=2 / limit-refs=3 / no-limit-modes / me=1 / subme=2 / merange=57 / temporal-mvp / weightp / no-weightb / no-analyze-src-pics / deblock=0:0 / sao / no-sao-non-deblock / rd=3 / no-early-skip / rskip / no-fast-intra / no-tskip-fast / no-cu-lossless / no-b-intra / rdpenalty=0 / psy-rd=2.00 / psy-rdoq=0.00 / no-rd-refine / analysis-mode=0 / no-lossless / cbqpoffs=0 / crqpoffs=0 / rc=abr / bitrate=5000 / qcomp=0.60 / qpstep=4 / stats-write=0 / stats-read=2 / cplxblur=20.0 / qblur=0.5 / ipratio=1.40 / pbratio=1.30 / aq-mode=1 / aq-strength=1.00 / cutree / zone-count=0 / no-strict-cbr / qg-size=32 / no-rc-grain / qpmax=69 / qpmin=0 / sar=1 / overscan=0 / videoformat=5 / range=0 / colorprim=2 / transfer=2 / colormatrix=2 / chromaloc=0 / display-window=0 / max-cll=0,0 / min-luma=0 / max-luma=1023 / log2-max-poc-lsb=8 / vui-timing-info / vui-hrd-info / slices=1 / opt-qp-pps / opt-ref-list-length-pps / no-multi-pass-opt-rps / scenecut-bias=0.05 / no-opt-cu-delta-qp / no-aq-motion / no-hdr / no-hdr-opt / refine-level=5 / no-limit-sao
Default : Да
Forced : Нет

Аудио
Идентификатор : 2
Формат : AC-3
Формат/Информация : Audio Coding 3
Коммерческое название : Dolby Digital
Идентификатор кодека : A_AC3
Продолжительность : 49 м. 15 с.
Вид битрейта : Постоянный
Битрейт : 384 Кбит/сек
Каналы : 6 каналов
Channel layout : L R C LFE Ls Rs
Частота : 48,0 КГц
Частота кадров : 31,250 кадров/сек (1536 SPF)
Метод сжатия : С потерями
Размер потока : 135 Мбайт (7%)
Заголовок : AC3 5.1 @ 384 kbps - Дубляж, НеваФильм
Язык : Russian
Service kind : Complete Main
Default : Да
Forced : Нет


Marvel's Runaways

Информация Описание:
Название: Беглецы
Оригинальное название: Marvel's Runaways
Год выхода: 2017 - 2019
Жанр: фантастика, боевик, драма
Режиссер: Роксанн Доусон, Нина Лопес-Коррадо, Бретт Морген
В ролях: Вирджиния Гарднер, Коуди Майо, Николь Вульф, Грегг Салкин, Кевин Уайзман, Райан Дум, Кармен Серано, Аллегра Акоста, Ариэла Барер, Бриджид Брэнно
Описание: История шести подростков, которые случайно узнают, что их родители входят в состав группы суперзлодеев под названием «Прайд». Эта группа руководит преступным миром Лос-Анджелеса. Дети узнают, что каждый из них, как и их родители, обладает какими-то способностями (а кто-то и вовсе не является человеком). Подростки решают, что не готовы принять такую судьбу, и пытаются сбежать от своих родителей.


Страна: США
Студия: ABC Studios, Marvel Studios Inc.
Продолжительность: ~ 00:55:00
Перевод: Профессиональный многоголосый | LostFilm
Перевод: Профессиональный многоголосый | NewStudio
Субтитры: нет |
Навигация по главам: нет
Информация о файле:
Качество: WEB-DLRip - HEVC 1080p Rip by DD2D3
Формат: MKV
Видео: V_MPEGH/ISO/HEVC; 1920x1080 (16:9); 5007 Kbps; 59,940 fps; 0,040 bpp
Аудио: русский; AC3; 384 Kbps; CBR; 6 ch ||
Аудио: русский; AC3; 384 Kbps; CBR; 6 ch ||
Доп. информация: нет

Общее
Уникальный идентификатор : 231679918737046824670601901966776521536 (0xAE4BEDE6A9BA10F78B6C08BD580AD340)
Полное имя : E:\Marvel Television Series (2013 - 2020) WEB-DLRip - HEVC 1080p 10 bit 60 FPS\Young Adult\Marvel's Runaways (2017 - 2019) WEB-DLRip - HEVC 1080p 10 bit 60 FPS\Season 1. Series 1 - 10 of 10.mkv
Формат : Matroska
Версия формата : Version 4
Размер файла : 2,09 Гбайт
Продолжительность : 53 м. 5 с.
Общий поток : 5 642 Кбит/сек
Название фильма : Rip by from DD2D3
Дата кодирования : UTC 2021-06-06 15:45:47
Программа кодирования : mkvmerge v10.0.0 ('To Drown In You') 32bit
Библиотека кодирования : libebml v1.3.4 + libmatroska v1.4.5
Attachments : poster

Видео
Идентификатор : 1
Формат : HEVC
Формат/Информация : High Efficiency Video Coding
Профиль формата : Main [email protected]@Main
Идентификатор кодека : V_MPEGH/ISO/HEVC
Продолжительность : 53 м. 5 с.
Битрейт : 4 992 Кбит/сек
Ширина : 1 920 пикселей
Высота : 1 080 пикселей
Соотношение сторон : 16:9
Режим частоты кадров : Постоянный
Частота кадров : 59,940 (60000/1001) кадров/сек
Цветовое пространство : YUV
Субдискретизация насыщенности : 4:2:0
Битовая глубина : 10 бит
Бит/(Пиксели*Кадры) : 0.040
Размер потока : 1,85 Гбайт (88%)
Библиотека кодирования : x265 2.3+33-0b7d54dbb71a87a0:[Windows][MSVC 1800][64 bit] 10bit: KG7x [x265.ru]
Настройки программы : cpuid=1173503 / frame-threads=2 / numa-pools=4 / wpp / no-pmode / no-pme / no-psnr / no-ssim / log-level=2 / input-csp=1 / input-res=1920x1080 / interlace=0 / total-frames=190958 / level-idc=41 / high-tier=1 / uhd-bd=0 / ref=3 / no-allow-non-conformance / no-repeat-headers / annexb / no-aud / no-hrd / info / hash=0 / no-temporal-layers / open-gop / min-keyint=25 / keyint=250 / bframes=4 / b-adapt=2 / b-pyramid / bframe-bias=0 / rc-lookahead=20 / lookahead-slices=6 / scenecut=40 / no-intra-refresh / ctu=64 / min-cu-size=8 / no-rect / no-amp / max-tu-size=32 / tu-inter-depth=1 / tu-intra-depth=1 / limit-tu=0 / rdoq-level=0 / dynamic-rd=0.00 / no-ssim-rd / signhide / no-tskip / nr-intra=0 / nr-inter=0 / no-constrained-intra / strong-intra-smoothing / max-merge=2 / limit-refs=3 / no-limit-modes / me=1 / subme=2 / merange=57 / temporal-mvp / weightp / no-weightb / no-analyze-src-pics / deblock=0:0 / sao / no-sao-non-deblock / rd=3 / no-early-skip / rskip / no-fast-intra / no-tskip-fast / no-cu-lossless / no-b-intra / rdpenalty=0 / psy-rd=2.00 / psy-rdoq=0.00 / no-rd-refine / analysis-mode=0 / no-lossless / cbqpoffs=0 / crqpoffs=0 / rc=abr / bitrate=5000 / qcomp=0.60 / qpstep=4 / stats-write=0 / stats-read=2 / cplxblur=20.0 / qblur=0.5 / ipratio=1.40 / pbratio=1.30 / aq-mode=1 / aq-strength=1.00 / cutree / zone-count=0 / no-strict-cbr / qg-size=32 / no-rc-grain / qpmax=69 / qpmin=0 / sar=1 / overscan=0 / videoformat=5 / range=0 / colorprim=2 / transfer=2 / colormatrix=2 / chromaloc=0 / display-window=0 / max-cll=0,0 / min-luma=0 / max-luma=1023 / log2-max-poc-lsb=8 / vui-timing-info / vui-hrd-info / slices=1 / opt-qp-pps / opt-ref-list-length-pps / no-multi-pass-opt-rps / scenecut-bias=0.05 / no-opt-cu-delta-qp / no-aq-motion / no-hdr / no-hdr-opt / refine-level=5 / no-limit-sao
Default : Да
Forced : Нет

Аудио
Идентификатор : 2
Формат : AC-3
Формат/Информация : Audio Coding 3
Коммерческое название : Dolby Digital
Идентификатор кодека : A_AC3
Продолжительность : 53 м. 5 с.
Вид битрейта : Постоянный
Битрейт : 640 Кбит/сек
Каналы : 6 каналов
Channel layout : L R C LFE Ls Rs
Частота : 48,0 КГц
Частота кадров : 31,250 кадров/сек (1536 SPF)
Метод сжатия : С потерями
Размер потока : 243 Мбайт (11%)
Заголовок : LostFilm
Язык : Russian
Service kind : Complete Main
Default : Да
Forced : Нет



Marvel's Helstrom
«В каждой семье живут свои демоны»

Информация Описание:
Название: Хелстром
Оригинальное название: Marvel's Helstrom
Год выхода: 2020
Жанр: ужасы, фантастика, фэнтези, боевик, драма, приключения
Режиссер: Андерс Энгстрем, Джим О’Хенлон, Майкл Оффер
В ролях: Том Остин, Сидни Леммон, Элизабет Марвел, Роберт Уиздом, Ариана Гуерра, Джун Каррил, Ален Юи, Дэниэл Кадмор, Эрика Тремблэй, Дэвид Мюнье и др.
Описание: Дэймон и Ана Хелстром — дети загадочного и могущественного серийного убийцы. В попытке разобраться в собственном происхождении они путешествуют по миру и уничтожают худших представителей человечества.


Страна: США
Студия: ABC Signature Studios, Marvel Television
Продолжительность: ~00:55:00
Перевод: Профессиональный многоголосый | LostFilm
Субтитры: русские |
Навигация по главам: есть
Информация о файле:
Качество: WEB-DLRip - HEVC 1080p Rip by DD2D3
Формат: MKV
Видео: V_MPEGH/ISO/HEVC; 1920x1080 (16:9); 4903 Kbps; 59,940 fps; 0,039 bpp
Аудио: русский; AC3; 384 Kbps; CBR; 2 ch ||
Доп. информация: нет

Общее
Уникальный идентификатор : 170457364312458404252698054067025693485 (0x803CE4EB68E9F120AAE66B7FA0054B2D)
Полное имя : E:\Marvel Television Series (2013 - 2020) WEB-DLRip - HEVC 1080p 10 bit 60 FPS\Adventure into Fear\Marvel's Helstrom (2020) WEB-DLRip - HEVC 1080p 10 bit 60 FPS\Season 1. Series 1 - 10 of 10.mkv
Формат : Matroska
Версия формата : Version 2
Размер файла : 2,10 Гбайт
Продолжительность : 55 м. 49 с.
Общий поток : 5 395 Кбит/сек
Название фильма : Rip by from DD2D3
Дата кодирования : UTC 2022-05-03 07:35:19
Программа кодирования : mkvmerge v6.9.1 ('Blue Panther') 32bit built on Apr 18 2014 18:15:44
Библиотека кодирования : libebml v1.3.0 + libmatroska v1.4.1
Attachments : poster

Видео
Идентификатор : 1
Формат : HEVC
Формат/Информация : High Efficiency Video Coding
Профиль формата : Main [email protected]@Main
Идентификатор кодека : V_MPEGH/ISO/HEVC
Продолжительность : 55 м. 49 с.
Битрейт : 4 903 Кбит/сек
Ширина : 1 920 пикселей
Высота : 1 080 пикселей
Соотношение сторон : 16:9
Режим частоты кадров : Постоянный
Частота кадров : 59,940 (60000/1001) кадров/сек
Цветовое пространство : YUV
Субдискретизация насыщенности : 4:2:0
Битовая глубина : 10 бит
Бит/(Пиксели*Кадры) : 0.039
Размер потока : 1,91 Гбайт (91%)
Библиотека кодирования : x265 2.3+33-0b7d54dbb71a87a0:[Windows][MSVC 1800][64 bit] 10bit: KG7x [x265.ru]
Настройки программы : cpuid=1173503 / frame-threads=2 / numa-pools=4 / wpp / no-pmode / no-pme / no-psnr / no-ssim / log-level=2 / input-csp=1 / input-res=1920x1080 / interlace=0 / total-frames=200763 / level-idc=41 / high-tier=1 / uhd-bd=0 / ref=3 / no-allow-non-conformance / no-repeat-headers / annexb / no-aud / no-hrd / info / hash=0 / no-temporal-layers / open-gop / min-keyint=25 / keyint=250 / bframes=4 / b-adapt=2 / b-pyramid / bframe-bias=0 / rc-lookahead=20 / lookahead-slices=6 / scenecut=40 / no-intra-refresh / ctu=64 / min-cu-size=8 / no-rect / no-amp / max-tu-size=32 / tu-inter-depth=1 / tu-intra-depth=1 / limit-tu=0 / rdoq-level=0 / dynamic-rd=0.00 / no-ssim-rd / signhide / no-tskip / nr-intra=0 / nr-inter=0 / no-constrained-intra / strong-intra-smoothing / max-merge=2 / limit-refs=3 / no-limit-modes / me=1 / subme=2 / merange=57 / temporal-mvp / weightp / no-weightb / no-analyze-src-pics / deblock=0:0 / sao / no-sao-non-deblock / rd=3 / no-early-skip / rskip / no-fast-intra / no-tskip-fast / no-cu-lossless / no-b-intra / rdpenalty=0 / psy-rd=2.00 / psy-rdoq=0.00 / no-rd-refine / analysis-mode=0 / no-lossless / cbqpoffs=0 / crqpoffs=0 / rc=abr / bitrate=5000 / qcomp=0.60 / qpstep=4 / stats-write=0 / stats-read=2 / cplxblur=20.0 / qblur=0.5 / ipratio=1.40 / pbratio=1.30 / aq-mode=1 / aq-strength=1.00 / cutree / zone-count=0 / no-strict-cbr / qg-size=32 / no-rc-grain / qpmax=69 / qpmin=0 / sar=1 / overscan=0 / videoformat=5 / range=0 / colorprim=2 / transfer=2 / colormatrix=2 / chromaloc=0 / display-window=0 / max-cll=0,0 / min-luma=0 / max-luma=1023 / log2-max-poc-lsb=8 / vui-timing-info / vui-hrd-info / slices=1 / opt-qp-pps / opt-ref-list-length-pps / no-multi-pass-opt-rps / scenecut-bias=0.05 / no-opt-cu-delta-qp / no-aq-motion / no-hdr / no-hdr-opt / refine-level=5 / no-limit-sao
Default : Да
Forced : Нет
Statistics Tags Issue : mkvmerge v10.0.0 ('To Drown In You') 32bit 2021-07-12 18:41:18 / mkvmerge v6.9.1 ('Blue Panther') 32bit built on Apr 18 2014 18:15:44 2022-05-03 07:35:19
FromStats_BitRate : 5002297
FromStats_Duration : 00:55:49.396000000
FromStats_FrameCount : 200763
FromStats_StreamSize : 2094334347

Аудио
Идентификатор : 2
Формат : AC-3
Формат/Информация : Audio Coding 3
Коммерческое название : Dolby Digital
Идентификатор кодека : A_AC3
Продолжительность : 55 м. 49 с.
Вид битрейта : Постоянный
Битрейт : 384 Кбит/сек
Каналы : 2 канала
Channel layout : L R
Частота : 48,0 КГц
Частота кадров : 31,250 кадров/сек (1536 SPF)
Метод сжатия : С потерями
Размер потока : 153 Мбайт (7%)
Заголовок : LostFilm
Язык : Russian
Service kind : Complete Main
Default : Да
Forced : Нет
Statistics Tags Issue : mkvmerge v10.0.0 ('To Drown In You') 32bit 2021-07-12 18:41:18 / mkvmerge v6.9.1 ('Blue Panther') 32bit built on Apr 18 2014 18:15:44 2022-05-03 07:35:19
FromStats_BitRate : 384000
FromStats_Duration : 00:55:49.568000000
FromStats_FrameCount : 104674
FromStats_StreamSize : 160779264

Текст
Идентификатор : 3
Формат : UTF-8
Идентификатор кодека : S_TEXT/UTF8
Идентификатор кодека/Информация : UTF-8 Plain Text
Заголовок : Rus
Язык : Russian
Default : Нет
Forced : Нет
Statistics Tags Issue : mkvmerge v10.0.0 ('To Drown In You') 32bit 2021-07-12 18:41:18 / mkvmerge v6.9.1 ('Blue Panther') 32bit built on Apr 18 2014 18:15:44 2022-05-03 07:35:19
FromStats_BitRate : 82
FromStats_Duration : 00:55:34.250000000
FromStats_FrameCount : 680
FromStats_StreamSize : 34373

Меню
00:17:30.000 : en:Chapter 01
00:27:42.005 : en:Chapter 02
00:37:07.008 : en:Chapter 03
00:50:02.007 : en:Chapter 04





Скачать Телесериалы Marvel: Коллекция через торрент https://a.picpig.ru/2022/07/23/maxresdefault.jpg Скачать, смотреть онлайн Телесериалы Marvel: Коллекция бесплантно в хорошем качестве Описание: Название: Агент Картер Оригинальное название: Agent Carter Год выхода: 2015 – 2016 Жанр: Фантастика, боевик, приключения, ... 9.8 10 8
Info! Золотая раздача, скачанное не засчитывается.
Торрент: Зарегистрирован [2022-07-23 13:08] · скачан: 2 раз
Статус: √ проверено
Размер: 492.17 GB
Как cкачать? Как скачать Телесериалы Marvel: Коллекция через торрент | UTorrent

28-11-2019 20:33  


Отключить вcю реклaмy на сайте, в т.ч. и в плеере онлайн просмотра!

24-07-2022 14:02 Телесериалы Marvel: Коллекция Скачать торрент  

Раздайте народ!



24-07-2022 16:05 Телесериалы Marvel: Коллекция Скачать торрент  

Раздаются, по тиху размер большой, а если еще агенты щит добавить 600 гигов



24-07-2022 19:12 Телесериалы Marvel: Коллекция Скачать торрент  

Так вообще ни одного байта не скачалось😃 за все время



28-07-2022 19:27 Телесериалы Marvel: Коллекция Скачать торрент  

Я пожалею о своем комментарии, так как нет столько места, но было бы неплохо сюда добавить 3 сезона сериала "Легион" про сына Чарльза Ксавьера ))



29-07-2022 06:59 Телесериалы Marvel: Коллекция Скачать торрент  

1. Легион мне не понравился, поэтому я его не делал и не добавлял к мутантам

2. В планах еще агенты ЩИТ, а это как минимум 100 гигов - 139 серий там

3. Я не могу понять, почему у меня периодически слетает раздача



30-07-2022 14:53 Телесериалы Marvel: Коллекция Скачать торрент  

Блин, ну я тебе скажу Легион очень хорош, его создатели Фарго делали и как и безумие героя смогли передать, так и злодей получился великолепный, плюс очень не стандартный сюжет паутина, если все же не сложно будет добавь плиз (перевод 1-2 сезон кубик, 3 сезон кто понравиться) буду очень благодарен)



26-08-2022 17:43 Телесериалы Marvel: Коллекция Скачать торрент  

джессика джонс - 1 сез. 6 сер. звук не синхронен с видео рядом, очень не синхронен



26-08-2022 20:48 Телесериалы Marvel: Коллекция Скачать торрент  

Заменю, так как исходник с озвучкой ньюстудио был скорее всего



27-08-2022 10:28 Телесериалы Marvel: Коллекция Скачать торрент  

джессика джонс - 1 сез. 13 сер. звук не синхронен с видео рядом



28-08-2022 10:24 Телесериалы Marvel: Коллекция Скачать торрент  

сорвиголова 3 сезон 9 серия - красная рамка в видеоряде



29-10-2022 11:02 Телесериалы Marvel: Коллекция Скачать торрент  

Добрый день, добавь пожалуйста Женщину-халк (фларров/ред) и Ночного оборотня (ред). Спасибо.



29-10-2022 13:31 Телесериалы Marvel: Коллекция Скачать торрент  

Ночного оборотня, что это такое?



04-11-2022 21:02 Телесериалы Marvel: Коллекция Скачать торрент  

Марвел спешл, будут на Дисней выпускать в рамках вселенной небольшие фильмы до часа по времени



    Дорогой пользователь! Огромная просьба, поблагодарите релизера, оцените раздачу и оставьте свои комментарий, если Вы скачали Телесериалы Marvel: Коллекция через торрент бесплатно!!
    Комментировать посты могут только пользователи прошедшие не сложную регистрацию
    Показать сообщения:    


    Телесериалы Marvel: Коллекция через торрент
    Скачать бесплатно Телесериалы Marvel: Коллекция
    Телесериалы Marvel: Коллекция скачать торрент
    Телесериалы Marvel: Коллекция смотреть онлайн
    Cкачать фильм Телесериалы Marvel: Коллекция бесплатно
    Телесериалы Marvel: Коллекция скачать торрент в хорошем качестве
    Телесериалы Marvel: Коллекция смотреть онлайн бесплатно в хорошем качестве
    Вы не можете начинать темы
    Вы не можете отвечать на сообщения
    Вы не можете редактировать свои сообщения
    Вы не можете удалять свои сообщения
    Вы не можете голосовать в опросах
    Вы не можете прикреплять файлы к сообщениям
    Вы можете скачивать файлы
    Телесериалы Marvel: Коллекция / Marvel Television Series: Collection [2013 - 2020, фантастика, боевик, триллер, приключения, WEB-DLRip - HEVC 1080p 10 bit 60 FPS, Дубляж, MVO] смотреть онлайн, скачать торрент picoco.icu