Всегда рабочее зеркало без VPN и Proxy просто перед .vidak.icu напиши любое слово или цифру, Пример http://w632.vidak.icu

Лицензия

MVO

1 сезон

1

1 сезон

iTunes

1 сезон

13

1 сезон

Deluxe

pack

Рекомендуем

Repack

30

ВАЖНО

RePack

MK11

RePack

jed

RePack

fifa19

RePack

RDR2

RePack

NEED FOR SPEED™ PAYBACK

Кинопоиск HD

6 сезон

 Острые козырьки 6 сезон

Все сериалы

все сериалы на PB.wtf

RePack

FAR CRY 5
  
Magnet ссылка

Маргарита - королева Севера / Margrete den første / Margrete: Queen of the North (Шарлотта Зилинг) [2021, Драма, биография, история, BDRip-AVC] DUB [Мосфильм-Мастер] pb.wtf

Маргарита - королева Севера через торрент pb.wtf

Размер: 2.11 GB | Добавлен: 19 д. назад | Торрент скачан:16 раз
Смотреть онлайн Маргарита - королева Севера | Скачать    Ребята, помогите собрать деньги на оплату серверов!!!

25-07-2022 01:49 Маргарита - королева Севера Скачать торрент  

Маргарита - королева Севера
Margrete den første
Margrete: Queen of the North

Год выпуска: 2021
Страна: Дания, Норвегия, Швеция, Польша, Чехия, Исландия
Выпущено: SF Studios, Filmkameratene A/STruenorth Productions
Жанр: Драма, биография, история
Продолжительность: 02:00:51
Перевод: Дублированный | Мосфильм-Мастер
Субтитры: Русские (Full), датские, английские

Режиссер: Шарлотта Зилинг

rating

В ролях: Трине Дюрхольм, Сёрен Маллинг, Мортен Хи Андерсен, Якоб Офтебро, Бьёрн Флоберг, Магнус Креппер, Томас В. Габриэльссон, Агнес Вестерлунд Разе, Саймон Дж. Бергер, Лайнус Нилссон

Описание: 1402 год. Маргрете добилась того, чего не удавалось ни одному мужчине раньше. Она объединила Данию, Норвегию и Швецию в миролюбивый союз, которым она единолично управляет через своего маленького приемного сына Эрика. Однако союз окружен врагами, и поэтому Маргрета планирует брак между Эриком и английской принцессой. Союз с Англией должен обеспечить союзу статус развивающейся европейской державы, но разворачивается захватывающий дух заговор, который может разорвать Маргрет и все, во что она верит, на части.

Качество: BDRip-AVC
Формат: MKV

Видео: MPEG-4 AVC, 1024x428 at 23.976 fps, [email protected], ~1660 kbps
Аудио#1: 48 kHz, AC3 Dolby Digital, 3/2 (L, C, R, l, r) + LFE ch, ~384 Kbps
Аудио#2: 48 kHz, AC3 Dolby Digital, 3/2 (L, C, R, l, r) + LFE ch, ~448 Kbps
скриншот  скриншот  скриншот  скриншот  

x264 [info]: frame I:1234 Avg QP:12.62 size: 58034
x264 [info]: frame P:31563 Avg QP:14.28 size: 20295
x264 [info]: frame B:141044 Avg QP:16.55 size: 5615

General
Unique ID : 179748916319938244151099228332099580968 (0x873A61CD73456E0ACAEA1A5E5CEF3428)
Complete name : K:Margrete.Queen.of.the.North.2021.BDRip.x264.seleZen.mkv
Format : Matroska
Format version : Version 4
File size : 2.11 GiB
Duration : 2 h 0 min
Overall bit rate : 2 494 kb/s
Movie name : Margrete.Queen.of.the.North.2021.BDRip.x264.seleZen
Encoded date : UTC 2022-07-24 18:22:40
Writing application : mkvmerge v63.0.0 ('Everything') 64-bit
Writing library : libebml v1.4.2 + libmatroska v1.6.4
Cover : Yes
Attachments : cover.jpg / small_cover.jpg

Video
ID : 1
Format : AVC
Format/Info : Advanced Video Codec
Format profile : [email protected]
Format settings : CABAC / 11 Ref Frames
Format settings, CABAC : Yes
Format settings, Reference : 11 frames
Codec ID : V_MPEG4/ISO/AVC
Duration : 2 h 0 min
Bit rate : 1 660 kb/s
Width : 1 024 pixels
Height : 428 pixels
Display aspect ratio : 2.40:1
Frame rate mode : Constant
Frame rate : 23.976 (24000/1001) FPS
Color space : YUV
Chroma subsampling : 4:2:0
Bit depth : 8 bits
Scan type : Progressive
Bits/(Pixel*Frame) : 0.158
Stream size : 1.40 GiB (67%)
Title : -=DoMiNo=-
Writing library : x264 core 164 by -=DoMiNo=-
Encoding settings : cabac=1 / ref=11 / deblock=1:-2:-2 / analyse=0x3:0x133 / me=umh / subme=11 / psy=1 / psy_rd=1.05:0.05 / mixed_ref=1 / me_range=32 / chroma_me=1 / trellis=2 / 8x8dct=1 / cqm=0 / deadzone=21,11 / fast_pskip=0 / chroma_qp_offset=-3 / threads=17 / lookahead_threads=3 / sliced_threads=0 / nr=0 / decimate=0 / interlaced=0 / bluray_compat=0 / constrained_intra=0 / bframes=10 / b_pyramid=2 / b_adapt=2 / b_bias=0 / direct=3 / weightb=1 / open_gop=0 / weightp=2 / keyint=250 / keyint_min=23 / scenecut=40 / intra_refresh=0 / rc_lookahead=60 / rc=crf / mbtree=0 / crf=17.0 / qcomp=0.60 / qpmin=0 / qpmax=69 / qpstep=4 / vbv_maxrate=50000 / vbv_bufsize=62500 / crf_max=0.0 / nal_hrd=none / filler=0 / ip_ratio=1.35 / pb_ratio=1.25 / aq=3:0.80
Language : English
Default : Yes
Forced : No

Audio #1
ID : 2
Format : AC-3
Format/Info : Audio Coding 3
Commercial name : Dolby Digital
Codec ID : A_AC3
Duration : 2 h 0 min
Bit rate mode : Constant
Bit rate : 384 kb/s
Channel(s) : 6 channels
Channel layout : L R C LFE Ls Rs
Sampling rate : 48.0 kHz
Frame rate : 31.250 FPS (1536 SPF)
Compression mode : Lossy
Stream size : 332 MiB (15%)
Title : DUB (Mosfilm-Master)
Language : Russian
Service kind : Complete Main
Default : Yes
Forced : Yes

Audio #2
ID : 3
Format : AC-3
Format/Info : Audio Coding 3
Commercial name : Dolby Digital
Codec ID : A_AC3
Duration : 2 h 0 min
Bit rate mode : Constant
Bit rate : 448 kb/s
Channel(s) : 6 channels
Channel layout : L R C LFE Ls Rs
Sampling rate : 48.0 kHz
Frame rate : 31.250 FPS (1536 SPF)
Compression mode : Lossy
Stream size : 387 MiB (18%)
Title : Original
Language : Danish
Service kind : Complete Main
Default : No
Forced : No

Text #1
ID : 4
Format : UTF-8
Codec ID : S_TEXT/UTF8
Codec ID/Info : UTF-8 Plain Text
Duration : 1 h 48 min
Bit rate : 63 b/s
Count of elements : 1251
Stream size : 50.7 KiB (0%)
Title : Full
Language : Russian
Default : No
Forced : No

Text #2
ID : 5
Format : UTF-8
Codec ID : S_TEXT/UTF8
Codec ID/Info : UTF-8 Plain Text
Duration : 1 h 48 min
Bit rate : 14 b/s
Count of elements : 316
Stream size : 11.8 KiB (0%)
Title : Forced
Language : Danish
Default : No
Forced : No

Text #3
ID : 6
Format : UTF-8
Codec ID : S_TEXT/UTF8
Codec ID/Info : UTF-8 Plain Text
Duration : 1 h 48 min
Bit rate : 42 b/s
Count of elements : 841
Stream size : 34.1 KiB (0%)
Title : Full
Language : Danish
Default : No
Forced : No

Text #4
ID : 7
Format : UTF-8
Codec ID : S_TEXT/UTF8
Codec ID/Info : UTF-8 Plain Text
Duration : 1 h 54 min
Bit rate : 39 b/s
Count of elements : 919
Stream size : 33.6 KiB (0%)
Title : Full
Language : English
Default : No
Forced : No

Text #5
ID : 8
Format : UTF-8
Codec ID : S_TEXT/UTF8
Codec ID/Info : UTF-8 Plain Text
Duration : 1 h 55 min
Bit rate : 44 b/s
Count of elements : 1115
Stream size : 37.6 KiB (0%)
Title : SDH
Language : English
Default : No
Forced : No

Menu
00:00:00.000 : :Chapter 01
00:10:04.938 : :Chapter 02
00:18:35.364 : :Chapter 03
00:28:47.059 : :Chapter 04
00:37:54.022 : :Chapter 05
00:46:50.891 : :Chapter 06
00:54:23.093 : :Chapter 07
01:06:46.336 : :Chapter 08
01:18:25.910 : :Chapter 09
01:27:25.449 : :Chapter 10
01:37:42.482 : :Chapter 11
01:50:54.439 : :Chapter 12
02:00:50.118 : :Chapter 13

pb.wtf



Скачать Маргарита - королева Севера через торрент https://i120.fastpic.org/big/2022/0724/0d/add62568699a3ae07b43de1750ee2b0d.png Скачать, смотреть онлайн Маргарита - королева Севера бесплантно в хорошем качестве Описание: 1402 год. Маргрете добилась того, чего не удавалось ни одному мужчине раньше. Она объединила Данию, Норвегию и Швецию в ... 10 10 2
Торрент: Зарегистрирован [2022-07-25 01:49] · скачан: 16 раз
Статус: √ проверено
Размер: 2.11 GB
Как cкачать? Как скачать Маргарита - королева Севера через торрент | UTorrent

% Раздел Тема Автор DL S | L
Фильмы 2021 [DVDrip, WEB-DLRip, HDrip] (DUB, MVO) [ 2.31 GB ] Маргарита - королева Севера / Margrete den første / Margrete: Queen of the North [2021 биография история BDRip-AVC] DUB [Мосфильм-Мастер] от ExKinoRay Lithuania Скачать
2 | 1
Фильмы (Blu-ray, BD-Remux, HDDVD) [ 26.5 GB ] Маргарита - королева Севера / Margrete den første / Margrete: Queen of the North [2021 биография история BD Remux 1080p] DUB [Мосфильм-Мастер] +MVO [RuDub] bober100 Скачать
1 | 0
Фильмы 2021 [DVDrip, WEB-DLRip, HDrip] (DUB, MVO) [ 1.46 GB ] Маргарита - королева Севера / Margrete den første / Margrete: Queen of the North [2021 биография история BDRip] DUB [Мосфильм-Мастер] bober100 Скачать
4 | 0
Фильмы [HD 720p, 1080p] (Хороший звук DUB, MVO) [ 6.78 GB ] Маргарита - королева Севера / Margrete den første / Margrete: Queen of the North [2021 биография история BDRip 720p] DUB [Мосфильм-Мастер] +MVO [RuDub] bober100 Скачать
3 | 0
Фильмы [HD 720p, 1080p] (Хороший звук DUB, MVO) [ 13.85 GB ] Маргарита - королева Севера / Margrete den første / Margrete: Queen of the North [2021 биография история BDRip 1080p] DUB [Мосфильм-Мастер] +MVO [RuDub] bober100 Скачать
5 | 0

28-11-2019 20:33  

Отключить вcю реклaмy на сайте

    Дорогой пользователь! Огромная просьба, поблагодарите релизера, оцените раздачу и оставьте свои комментарий, если Вы скачали Маргарита - королева Севера через торрент бесплатно!
    Комментировать посты могут только пользователи прошедшие не сложную регистрацию
    Показать сообщения:    

    Маргарита - королева Севера через торрент
    Скачать бесплатно Маргарита - королева Севера
    Маргарита - королева Севера скачать торрент
    Маргарита - королева Севера смотреть онлайн
    Cкачать фильм Маргарита - королева Севера бесплатно
    Маргарита - королева Севера скачать торрент в хорошем качестве
    Маргарита - королева Севера смотреть онлайн бесплатно в хорошем качестве


    Вы не можете начинать темы
    Вы не можете отвечать на сообщения
    Вы не можете редактировать свои сообщения
    Вы не можете удалять свои сообщения
    Вы не можете голосовать в опросах
    Вы не можете прикреплять файлы к сообщениям
    Вы можете скачивать файлы