Всегда рабочее зеркало без VPN и Proxy просто перед .vidak.icu напиши любое слово или цифру, Пример http://7pzk.vidak.icu

Лицензия

MVO

1 сезон

1

1 сезон

iTunes

1 сезон

13

1 сезон

Deluxe

pack

Рекомендуем

Repack

30

ВАЖНО

RePack

MK11

RePack

jed

RePack

fifa19

RePack

RDR2

RePack

NEED FOR SPEED™ PAYBACK

Кинопоиск HD

6 сезон

 Острые козырьки 6 сезон

Все сериалы

все сериалы на PB.wtf

RePack

FAR CRY 5
  
Magnet ссылка

Боец: Король ринга / Prizefighter: The Life of Jem Belcher (Дэниел Грэм) [2022, Биография, WEB-DLRip-AVC] DUB [Локализованная версия | Мосфильм-Мастер] от ExKinoRay pb.wtf

Боец: Король ринга через торрент pb.wtf

Раздают: 3 [ 0 KB/s ]
Размер: 1.98 GB | Добавлен: 8 д. назад | Торрент скачан:23 раза
Смотреть онлайн Боец: Король ринга | Скачать    Ребята, помогите собрать деньги на оплату серверов!!!

25-07-2022 10:47 Боец: Король ринга Скачать торрент  


Боец: Король ринга / Prizefighter: The Life of Jem Belcher
Информация о фильме:
Название: Боец: Король ринга
Оригинальное название: Prizefighter: The Life of Jem Belcher
Год выхода: 2022
Жанр: Биография
Режиссер: Дэниел Грэм
В ролях: Мэтт Хукингс, Рэй Уинстон, Рассел Кроу, Мартон Чокаш, Джоди Мэй, Джулиан Гловер, Стивен Беркофф, Глен Фокс, Рики Чаплин, Люси Мартин

Описание: История жизни и становления легендарного профессионального боксера Джема Белчера. В эпоху зарождения бокса он стремительно ворвался на спортивный олимп. Несмотря на взлеты и падения он стал одним из самых харизматичных и любимых чемпионов мира.



Страна: Великобритания
Студия: Camelot Films, Hardman Pictures
Продолжительность: 01:46:57
Перевод: Дублированный - Мосфильм-Мастер



Информация о файле:
Кодек: AVC
Формат: MKV
Качество: WEB-DLRip-AVC | Локализованная версия
Видео: MPEG-4 AVC, 1024x428, 24.000 fps, 1890 kb/s
Аудио RU: AC3, 6 ch, 48 kHz, 384 kbps
Аудио EN: AC3, 6 ch, 48 kHz, 448 kbps
Субтитры: Английские



x264 info: frame I:1338 Avg QP:11.54 size: 56766
x264 info: frame P:34041 Avg QP:14.06 size: 20670
x264 info: frame B:118179 Avg QP:16.40 size: 6180
General
Unique ID : 139214974676663398392948532054028626099 (0x68BBD42F199CAA6ED087CF252F52A8B3)
Complete name : D:uTorrentРипы wolf1245Prizefighter The Life of Jem Belcher.2022.DUB.MOSFILMMASTER.X264.WEB-DLRip-AVC.[wolf1245.ExKinoRay].mkv
Format : Matroska
Format version : Version 4
File size : 1.98 GiB
Duration : 1 h 46 min
Overall bit rate : 2 657 kb/s
Movie name : Prizefighter The Life of Jem Belcher.2022.DUB.MOSFILMMASTER.X264.WEB-DLRip-AVC.[wolf1245.ExKinoRay]
Encoded date : UTC 2022-08-08 15:12:52
Writing application : mkvmerge v69.0.0 ('Day And Age') 64-bit
Writing library : libebml v1.4.2 + libmatroska v1.6.4
Video
ID : 1
Format : AVC
Format/Info : Advanced Video Codec
Format profile : [email protected]
Format settings : CABAC / 12 Ref Frames
Format settings, CABAC : Yes
Format settings, Reference frames : 12 frames
Codec ID : V_MPEG4/ISO/AVC
Duration : 1 h 46 min
Bit rate : 1 890 kb/s
Width : 1 024 pixels
Height : 428 pixels
Display aspect ratio : 2.40:1
Frame rate mode : Constant
Frame rate : 24.000 FPS
Color space : YUV
Chroma subsampling : 4:2:0
Bit depth : 8 bits
Scan type : Progressive
Bits/(Pixel*Frame) : 0.180
Stream size : 1.41 GiB (71%)
Title : -=[wolf1245.ExKinoRay]=-
Writing library : x264 core 163 r3060 5db6aa6
Encoding settings : cabac=1 / ref=12 / deblock=1:-2:-1 / analyse=0x3:0x133 / me=umh / subme=9 / psy=1 / psy_rd=0.98:0.10 / mixed_ref=1 / me_range=32 / chroma_me=1 / trellis=2 / 8x8dct=1 / cqm=0 / deadzone=22,11 / fast_pskip=1 / chroma_qp_offset=-3 / threads=10 / lookahead_threads=2 / sliced_threads=0 / nr=0 / decimate=0 / interlaced=0 / bluray_compat=0 / constrained_intra=0 / bframes=10 / b_pyramid=2 / b_adapt=2 / b_bias=0 / direct=3 / weightb=1 / open_gop=0 / weightp=2 / keyint=240 / keyint_min=24 / scenecut=40 / intra_refresh=0 / rc_lookahead=100 / rc=2pass / mbtree=0 / bitrate=1890 / ratetol=1.0 / qcomp=0.75 / qpmin=0 / qpmax=69 / qpstep=4 / cplxblur=20.0 / qblur=0.5 / vbv_maxrate=50000 / vbv_bufsize=62500 / nal_hrd=none / filler=0 / ip_ratio=1.37 / pb_ratio=1.27 / aq=3:0.90
Language : English
Default : Yes
Forced : No
Color range : Limited
Matrix coefficients : BT.709
Audio #1
ID : 2
Format : AC-3
Format/Info : Audio Coding 3
Commercial name : Dolby Digital
Codec ID : A_AC3
Duration : 1 h 46 min
Bit rate mode : Constant
Bit rate : 384 kb/s
Channel(s) : 6 channels
Channel layout : L R C LFE Ls Rs
Sampling rate : 48.0 kHz
Frame rate : 31.250 FPS (1536 SPF)
Compression mode : Lossy
Stream size : 293 MiB (14%)
Title : DUB | Мосфильм-Мастер | RUS
Language : Russian
Service kind : Complete Main
Default : Yes
Forced : Yes
Audio #2
ID : 3
Format : AC-3
Format/Info : Audio Coding 3
Commercial name : Dolby Digital
Codec ID : A_AC3
Duration : 1 h 46 min
Bit rate mode : Constant
Bit rate : 384 kb/s
Channel(s) : 6 channels
Channel layout : L R C LFE Ls Rs
Sampling rate : 48.0 kHz
Frame rate : 31.250 FPS (1536 SPF)
Compression mode : Lossy
Stream size : 293 MiB (14%)
Title : Original | ENG
Language : English
Service kind : Complete Main
Default : No
Forced : No
Text
ID : 4
Format : UTF-8
Codec ID : S_TEXT/UTF8
Codec ID/Info : UTF-8 Plain Text
Duration : 1 h 44 min
Bit rate : 52 b/s
Count of elements : 1825
Stream size : 40.4 KiB (0%)
Title : SDH
Language : English
Default : No
Forced : No
Релиз от:
Автор релиза:
pb.wtf



Скачать Боец: Король ринга через торрент http://i120.fastpic.org/big/2022/0725/a6/1db0e9d10c5f62f104ff629a70e682a6.jpg Скачать, смотреть онлайн Боец: Король ринга бесплантно в хорошем качестве Описание: История жизни и становления легендарного профессионального боксера Джема Белчера. В эпоху зарождения бокса он стремительно ... 10 10 9
Торрент: Зарегистрирован [2022-08-08 15:34] · скачан: 23 раз
Статус: √ проверено
Размер: 1.98 GB
Как cкачать? Как скачать Боец: Король ринга через торрент | UTorrent

28-11-2019 20:33  

Отключить вcю реклaмy на сайте

    Дорогой пользователь! Огромная просьба, поблагодарите релизера, оцените раздачу и оставьте свои комментарий, если Вы скачали Боец: Король ринга через торрент бесплатно!
    Комментировать посты могут только пользователи прошедшие не сложную регистрацию
    Показать сообщения:    

    Боец: Король ринга через торрент
    Скачать бесплатно Боец: Король ринга
    Боец: Король ринга скачать торрент
    Боец: Король ринга смотреть онлайн
    Cкачать фильм Боец: Король ринга бесплатно
    Боец: Король ринга скачать торрент в хорошем качестве
    Боец: Король ринга смотреть онлайн бесплатно в хорошем качестве


    Вы можете начинать темы
    Вы можете отвечать на сообщения
    Вы не можете редактировать свои сообщения
    Вы не можете удалять свои сообщения
    Вы не можете голосовать в опросах
    Вы не можете прикреплять файлы к сообщениям
    Вы можете скачивать файлы