Всегда рабочее зеркало без VPN и Proxy просто перед .vidak.icu напиши любое слово или цифру, Пример http://ehmh.vidak.icu

Лицензия

MVO

1 сезон

1

1 сезон

iTunes

1 сезон

13

1 сезон

Deluxe

pack

Рекомендуем

Repack

30

ВАЖНО

RePack

MK11

RePack

jed

RePack

fifa19

RePack

RDR2

RePack

NEED FOR SPEED™ PAYBACK

Кинопоиск HD

6 сезон

 Острые козырьки 6 сезон

Все сериалы

все сериалы на PB.wtf

RePack

FAR CRY 5
  
Magnet ссылка

Тони Хоук: Пока не отвалятся колёса / Tony Hawk: Until the Wheels Fall Off (Сэм Джонс) [2022, документальный, биография, спорт, WEB-DL 1080p] [MVO] (Contentica) pb.wtf

Тони Хоук: Пока не отвалятся колёса через торрент pb.wtf

Размер: 7.77 GB | Добавлен: 21 д. назад | Торрент скачан:20 раз
Смотреть онлайн Тони Хоук: Пока не отвалятся колёса | Скачать    Ребята, помогите собрать деньги на оплату серверов!!!

25-07-2022 18:17 Тони Хоук: Пока не отвалятся колёса Скачать торрент  

Тони Хоук: Пока не отвалятся колёса / Tony Hawk: Until the Wheels Fall Off
Год выпуска: 2022
Страна: США
Жанр: документальный, биография, спорт
Продолжительность: 02:03:36

Перевод: Профессиональный (многоголосый закадровый) | Contentica по заказу Amedia

Режиссёр: Сэм Джонс

В ролях: Тони Хоук, Стэйси Перальта, Майк МакГилл, Родни Маллен, Роб Рой Фицджералд, Томми Герреро, Роберт Бойс, Кристиан Хосой, Дэнни Вэй, Стив Кабальеро

Описание: Документальный фильм о самом влиятельном скейтбордисте всех времён. «Тони Хоук: Пока не отвалятся колёса» — всесторонний и исчерпывающий взгляд на жизнь и карьеру легендарного спортсмена. На протяжении долгих лет Тони Хоук был главной поп-звездой скейтбординга, ролевой моделью для многих людей, пытающихся покорить «доску». Создатели проекта получили беспрецедентный доступ к скейтбордисту и редкие архивные кадры. Фильм также включает в себя интервью с видными коллегами Хоука — Родни Малленом, Майком МакГиллом, Энди Макдональдом и многими другими.

rating

Качество: WEB-DL 1080p | HBO MAX EU
Контейнер: MKV
Видео: AVC, 1920x1080 (16:9), 25 fps, ~8250 kbps
Аудио №1: AC3, 48 kHz, 6 ch, 384 kbps
Аудио №2: AC3, 48 kHz, 6 ch, 384 kbps
Субтитры: Русские (Forced, Full), английские, польские, румынские
Формат субтитров: softsub (SRT)
General
Complete name : Tony.Hawk.Until.the.Wheels.Fall.Off.1080p.HMAX.WEB-DL.DD5.1.x264-EniaHD.mkv
Format : Matroska
Format version : Version 4
File size : 7.77 GiB
Duration : 2 h 3 min
Overall bit rate mode : Variable
Overall bit rate : 9 000 kb/s
Movie name : Tony Hawk: Until the Wheels Fall Off (2022) - EniaHD
Writing application : mkvmerge v57.0.0 ('Till The End') 64-bit
Writing library : libebml v1.4.2 + libmatroska v1.6.4

Video
ID : 1
Format : AVC
Format/Info : Advanced Video Codec
Format profile : [email protected]
Format settings : CABAC / 4 Ref Frames
Format settings, CABAC : Yes
Format settings, Reference fra : 4 frames
Codec ID : V_MPEG4/ISO/AVC
Duration : 2 h 3 min
Bit rate mode : Variable
Bit rate : 8 250 kb/s
Maximum bit rate : 12.4 Mb/s
Width : 1 920 pixels
Height : 1 080 pixels
Display aspect ratio : 16:9
Frame rate mode : Constant
Frame rate : 25.000 FPS
Color space : YUV
Chroma subsampling : 4:2:0
Bit depth : 8 bits
Scan type : Progressive
Bits/(Pixel*Frame) : 0.159
Stream size : 7.10 GiB (91%)
Writing library : x264 core 157 r2965 861cec4
Encoding settings : cabac=1 / ref=4 / deblock=1:0:0 / analyse=0x3:0x113 / me=hex / subme=7 / psy=1 / psy_rd=1.00:0.00 / mixed_ref=1 / me_range=16 / chroma_me=1 / trellis=1 / 8x8dct=1 / cqm=0 / deadzone=21,11 / fast_pskip=1 / chroma_qp_offset=-2 / threads=34 / lookahead_threads=5 / sliced_threads=0 / nr=0 / decimate=1 / interlaced=0 / bluray_compat=0 / constrained_intra=0 / bframes=3 / b_pyramid=2 / b_adapt=1 / b_bias=0 / direct=1 / weightb=1 / open_gop=0 / weightp=2 / keyint=100 / keyint_min=100 / scenecut=40 / intra_refresh=0 / rc_lookahead=40 / rc=2pass / mbtree=1 / bitrate=8250 / ratetol=1.0 / qcomp=0.60 / qpmin=0 / qpmax=69 / qpstep=4 / cplxblur=20.0 / qblur=0.5 / vbv_maxrate=12375 / vbv_bufsize=6187 / nal_hrd=vbr / filler=0 / ip_ratio=1.40 / aq=1:1.00
Default : Yes
Forced : No
Color range : Limited
Color primaries : BT.709
Transfer characteristics : BT.709
Matrix coefficients : BT.709

Audio #1
ID : 2
Format : AC-3
Format/Info : Audio Coding 3
Commercial name : Dolby Digital
Codec ID : A_AC3
Duration : 2 h 3 min
Bit rate mode : Constant
Bit rate : 384 kb/s
Channel(s) : 6 channels
Channel layout : L R C LFE Ls Rs
Sampling rate : 48.0 kHz
Frame rate : 31.250 FPS (1536 SPF)
Compression mode : Lossy
Stream size : 339 MiB (4%)
Language : Russian
Service kind : Complete Main
Default : Yes
Forced : No

Audio #2
ID : 3
Format : AC-3
Format/Info : Audio Coding 3
Commercial name : Dolby Digital
Codec ID : A_AC3
Duration : 2 h 3 min
Bit rate mode : Constant
Bit rate : 384 kb/s
Channel(s) : 6 channels
Channel layout : L R C LFE Ls Rs
Sampling rate : 48.0 kHz
Frame rate : 31.250 FPS (1536 SPF)
Compression mode : Lossy
Stream size : 339 MiB (4%)
Language : English
Service kind : Complete Main
Default : No
Forced : No

Text #1
ID : 4
Format : UTF-8
Codec ID : S_TEXT/UTF8
Codec ID/Info : UTF-8 Plain Text
Duration : 1 h 31 min
Bit rate : 3 b/s
Count of elements : 58
Stream size : 2.38 KiB (0%)
Title : Forced
Language : Russian
Default : Yes
Forced : No

Text #2
ID : 5
Format : UTF-8
Codec ID : S_TEXT/UTF8
Codec ID/Info : UTF-8 Plain Text
Duration : 1 h 59 min
Bit rate : 129 b/s
Count of elements : 1700
Stream size : 114 KiB (0%)
Language : Russian
Default : No
Forced : No

Text #3
ID : 6
Format : UTF-8
Codec ID : S_TEXT/UTF8
Codec ID/Info : UTF-8 Plain Text
Duration : 2 h 2 min
Bit rate : 83 b/s
Count of elements : 2205
Stream size : 75.2 KiB (0%)
Language : English
Default : No
Forced : No

Text #4
ID : 7
Format : UTF-8
Codec ID : S_TEXT/UTF8
Codec ID/Info : UTF-8 Plain Text
Duration : 2 h 2 min
Bit rate : 74 b/s
Count of elements : 2007
Stream size : 67.1 KiB (0%)
Language : Polish
Default : No
Forced : No

Text #5
ID : 8
Format : UTF-8
Codec ID : S_TEXT/UTF8
Codec ID/Info : UTF-8 Plain Text
Duration : 2 h 2 min
Bit rate : 79 b/s
Count of elements : 1542
Stream size : 71.1 KiB (0%)
Language : Romanian
Default : No
Forced : No
pb.wtf



Скачать Тони Хоук: Пока не отвалятся колёса через торрент https://i7.imageban.ru/out/2022/07/25/a8aec26df908b18c7ba06f8ca28f26b5.jpg Скачать, смотреть онлайн Тони Хоук: Пока не отвалятся колёса бесплантно в хорошем качестве Описание: Документальный фильм о самом влиятельном скейтбордисте всех времён. «Тони Хоук: Пока не отвалятся колёса» — всесторонний и ... 10 10 1
Торрент: Зарегистрирован [2022-07-25 18:17] · скачан: 20 раз
Статус: √ проверено
Размер: 7.77 GB
Как cкачать? Как скачать Тони Хоук: Пока не отвалятся колёса через торрент | UTorrent

28-11-2019 20:33  

Отключить вcю реклaмy на сайте

25-07-2022 19:22 Тони Хоук: Пока не отвалятся колёса Скачать торрент  

7гб... Давайте поменьше, на полтора и я качну, посмотрю потом на работе на телефоне.pb.wtf
Kkillermax2013 писал(а):

так и это можно спокойно смотреть на телефоне. Сейчас в телефонах памяти много



    Дорогой пользователь! Огромная просьба, поблагодарите релизера, оцените раздачу и оставьте свои комментарий, если Вы скачали Тони Хоук: Пока не отвалятся колёса через торрент бесплатно!
    Комментировать посты могут только пользователи прошедшие не сложную регистрацию
    Показать сообщения:    

    Тони Хоук: Пока не отвалятся колёса через торрент
    Скачать бесплатно Тони Хоук: Пока не отвалятся колёса
    Тони Хоук: Пока не отвалятся колёса скачать торрент
    Тони Хоук: Пока не отвалятся колёса смотреть онлайн
    Cкачать фильм Тони Хоук: Пока не отвалятся колёса бесплатно
    Тони Хоук: Пока не отвалятся колёса скачать торрент в хорошем качестве
    Тони Хоук: Пока не отвалятся колёса смотреть онлайн бесплатно в хорошем качестве


    Вы не можете начинать темы
    Вы не можете отвечать на сообщения
    Вы не можете редактировать свои сообщения
    Вы не можете удалять свои сообщения
    Вы не можете голосовать в опросах
    Вы не можете прикреплять файлы к сообщениям
    Вы можете скачивать файлы