Всегда рабочее зеркало без VPN и Proxy просто перед .vidak.icu напиши любое слово или цифру, Пример http://29x1.vidak.icu

Лицензия

MVO

1 сезон

1

1 сезон

iTunes

1 сезон

13

1 сезон

Deluxe

pack

Рекомендуем

Repack

30

ВАЖНО

RePack

MK11

RePack

jed

RePack

fifa19

RePack

RDR2

RePack

NEED FOR SPEED™ PAYBACK

Кинопоиск HD

6 сезон

 Острые козырьки 6 сезон

Все сериалы

все сериалы на PB.wtf

RePack

FAR CRY 5
  
Magnet ссылка

Наследие / Сезон: 1 / Серии: 1-7 из 10 (Алексей Голубев) [2022, Фантастика, WEBRip 1080p] pb.wtf

Наследие через торрент pb.wtf

Раздают: 2 [ 87 KB/s ] Качают: 5 [ 0 KB/s ]
Размер: 9.71 GB | Добавлен: 1 д. 10 ч. назад | Торрент скачан:7 раз
Смотреть онлайн Наследие | Скачать    Ребята, помогите собрать деньги на оплату серверов!!!

27-07-2022 21:51 Наследие Скачать торрент  

Наследие
Год выпуска: 2022
Страна: Россия
Жанр: Фантастика
Продолжительность: ~ 00:45:00 серия
Перевод: Не требуется
Субтитры: отсутствуют

Режиссер: Алексей Голубев

rating

В ролях: Алексей Серебряков, Егор Бероев, Ольга Макеева, Татьяна Меженцева, Алексей Онежен, Константин Белошапка, Федор Гамалея, Артём Ткаченко, Михаил Евланов, Карина Фадеева, Даниил Эйдлин, Ольга Тимофеева, Артем Манукян, Александр Рапопорт, Константин Крюков, Катерина Ковальчук, Евгений Шварц, Святослав Королев, Анар Халилов, Никита Пресняков, Владислав Семилетков, Рената Пиотровски, Галина Панова, Николай Овсянников , Полина Крикунова, Давид Ниамеди, Вероника Устимова, Варвара Комарова, Елизавета Говорова, Иван Рысин, Кирилл Жиров

Описание: Когда генетическое разнообразие стало минимальным, а человечество оказалось на грани вымирания, стартовала программа «Наследие», призванная восполнить популяцию. Ее возглавили биоинженеры Александр и Елизавета Гордеевы и генетик Петр Сергеевич. Группа ученых провела в криогенном сне сто лет, чтобы в будущем разморозить здоровые эмбрионы. Однако ученые и представить не могли, каким окажется первое поколение новых людей и последняя надежда человечества.

Качество: WEBRip 1080p
Формат: MKV

Видео: MPEG-4 AVC, 1920x1072, ~ 4500 Кбит/с, 0.089 bit/pixel, 24 Кадр/с
Аудио: 48.0 kHz, AC3 Dolby Digital, 2/0 (L,R) ch, ~ 192 kbps
скриншот  скриншот  скриншот  скриншот  скриншот  скриншот  

Общее
Уникальный идентификатор : 130413969030584047233158130627773164293 (0x621CD11A9B5E17CCFAE0B1F7C9EB6B05)
Полное имя : D:\Nasledie.S01.2022.WEBRip.1080p\Nasledie.S01.E01.2022.WEBRip.1080p.mkv
Формат : Matroska
Версия формата : Version 4
Размер файла : 1,40 Гбайт
Продолжительность : 43 м. 35 с.
Режим общего битрейта : Переменный
Общий поток : 4 613 Кбит/сек
Название фильма : Nasledie.S01.E01.2022.WEBRip.1080p
Дата кодирования : UTC 2022-07-27 21:09:32
Программа кодирования : mkvmerge v68.0.0 ('The Curtain') 64-bit
Библиотека кодирования : libebml v1.4.2 + libmatroska v1.6.4
Attachments : poster.jpg

Видео
Идентификатор : 1
Формат : AVC
Формат/Информация : Advanced Video Codec
Профиль формата : [email protected]
Настройки формата : CABAC / 2 Ref Frames
Параметр CABAC формата : Да
Параметр RefFrames формата : 2 кадра
Идентификатор кодека : V_MPEG4/ISO/AVC
Продолжительность : 43 м. 35 с.
Вид битрейта : Переменный
Битрейт : 4 418 Кбит/сек
Максимальный битрейт : 4 500 Кбит/сек
Ширина : 1 920 пикселей
Высота : 1 072 пикселя
Соотношение сторон : 16:9
Режим частоты кадров : Постоянный
Частота кадров : 24,000 кадра/сек
Цветовое пространство : YUV
Субдискретизация насыщенности : 4:2:0
Битовая глубина : 8 бит
Тип развёртки : Прогрессивная
Бит/(Пиксели*Кадры) : 0.089
Размер потока : 1,35 Гбайт (96%)
Default : Да
Forced : Нет
Цветовой диапазон : Limited
Основные цвета : BT.709
Характеристики трансфера : BT.709
Коэффициенты матрицы : BT.709

Аудио
Идентификатор : 2
Формат : AC-3
Формат/Информация : Audio Coding 3
Коммерческое название : Dolby Digital
Идентификатор кодека : A_AC3
Продолжительность : 43 м. 35 с.
Вид битрейта : Постоянный
Битрейт : 192 Кбит/сек
Каналы : 2 канала
Channel layout : L R
Частота : 48,0 КГц
Частота кадров : 31,250 кадров/сек (1536 SPF)
Метод сжатия : С потерями
Размер потока : 59,9 Мбайт (4%)
Service kind : Complete Main
Default : Да
Forced : Нет

Когда раздача ведётся путём добавления новых серий, при каждом добавлении создётся новый торрент. Чтобы начать докачку новой серии, пользователям необходимо сделать следующее:
(1) остановить скачивание,
(2) удалить старый торрент у себя из клиента (старые серии удалять не надо),
(3) скачать новый торрент и запустить его у себя в клиенте вместо старого, при этом указать клиенту путь в старую папку, куда и должно происходить скачивание новых серий.
Ваш клиент при этом должен произвести хеширование (проверку) старой папки (если не производит сам - помогите ему сделать это), и будет докачивать только те серии, которых у вас ещё нет. Старые серии при этом не удаляются, а продолжают раздаваться!
Eсли вы уже удалили старые серии, то предотвратить повторную закачку старых серий можно, отжав галочку в соответсвующих местах при запуске нового торрента. По возможности, желательно не удалять старые серии как можно дольше, чтобы релизёр не столько продолжал раздавать старые серии, а смог сконцентрироваться на новых.

pb.wtf



Скачать Наследие через торрент https://i120.fastpic.org/big/2022/0727/4c/9e05a48ee59efd623a48543efc1f6f4c.jpg Скачать, смотреть онлайн Наследие бесплантно в хорошем качестве Описание: Когда генетическое разнообразие стало минимальным, а человечество оказалось на грани вымирания, стартовала программа «Наследие», ... 8.1 10 14
Торрент: Зарегистрирован [2022-08-16 02:52] · скачан: 7 раз
Статус: √ проверено
Размер: 9.71 GB
Как cкачать? Как скачать Наследие через торрент | UTorrent

% Раздел Тема Автор DL S | L
TNT serials [ 6.25 GB ] Наследие / Сезон: 1 / Серии: 1-7 из 10 [2022 WEBRip 720p] bober100 Скачать
1 | 1
TNT serials [ 3.94 GB ] Наследие / Сезон: 1 / Серии: 1-7 из 10 [2022 WEBRip] bober100 Скачать
2 | 65


Последний раз редактировалось: bober100 (2022-08-16 02:51), всего редактировалось 5 раз(а)

28-11-2019 20:33  

Отключить вcю реклaмy на сайте

30-07-2022 09:55 Наследие Скачать торрент  

Рядом с Серебряковым не хватает Ефремова с Епифанцевым и ящика водки. Очередной репортаж из бомжатника сняли...pb.wtf



04-08-2022 18:04 Наследие Скачать торрент  

дермище еще то...баба правит во времена правления сильных над слабыми,что само по себе бред...
нигера откуда то откопали...
сюжет
герои ...
кормят нас инфоговном...а пипл хаваетpb.wtf



16-08-2022 10:47 Наследие Скачать торрент  

vlniktt писал(а):

Рядом с Серебряковым не хватает Ефремова с Епифанцевым и ящика водки. Очередной репортаж из бомжатника сняли...

в точку, "Зеленый слоник:Наследие". pb.wtf



    Дорогой пользователь! Огромная просьба, поблагодарите релизера, оцените раздачу и оставьте свои комментарий, если Вы скачали Наследие через торрент бесплатно!
    Комментировать посты могут только пользователи прошедшие не сложную регистрацию
    Показать сообщения:    

    Наследие через торрент
    Скачать бесплатно Наследие
    Наследие скачать торрент
    Наследие смотреть онлайн
    Cкачать фильм Наследие бесплатно
    Наследие скачать торрент в хорошем качестве
    Наследие смотреть онлайн бесплатно в хорошем качестве


    Вы не можете начинать темы
    Вы не можете отвечать на сообщения
    Вы не можете редактировать свои сообщения
    Вы не можете удалять свои сообщения
    Вы не можете голосовать в опросах
    Вы не можете прикреплять файлы к сообщениям
    Вы можете скачивать файлы