Лицензия

MVO

1

1 сезон

Лицензия

Лицензия

13

MVO

1 сезон

Deluxe Edition

pack

Рекомендуем

30

Repack

ВАЖНО

ВАЖНО

Ghostwire

RePack

jed

RePack

fifa19

RePack

RDR2

RePack

NEED FOR SPEED™ PAYBACK

RePack

Кинопоиск HD

 Острые козырьки 6 сезон

6 сезон

FAR CRY 6

RePack

Лицензия

MVO

1

1 сезон

1 сезон

Лицензия

  

Боец: Король ринга / Prizefighter: The Life of Jem Belcher (Дэниел Грэм) [2022, Биография, WEB-DL 1080p] DUB [Мосфильм-Мастер]

Боец: Король ринга через торрент pb.wtf

Раздают: 3 [ 0 KB/s ]
Размер: 7.01 GB | Добавлен: 1 мес. 29 д. назад | Торрент скачан:130 раз
Смотреть онлайн Боец: Король ринга | Скачать   

28-07-2022 02:51 Боец: Король ринга Скачать торрент  

Боец: Король ринга
Prizefighter: The Life of Jem Belcher

Год выпуска: 2022
Страна: Великобритания
Выпущено: Camelot Films, Hardman Pictures
Жанр: Биография
Продолжительность: 01:46:57
Перевод: Дублированный | Мосфильм-Мастер
Субтитры: Aнглийские

Режиссер: Дэниел Грэм

rating

В ролях: Мэтт Хукингс, Рэй Уинстон, Рассел Кроу, Мартон Чокаш, Джоди Мэй, Джулиан Гловер, Стивен Беркофф, Глен Фокс, Рики Чаплин, Люси Мартин

Описание: История жизни и становления легендарного профессионального боксера Джема Белчера. В эпоху зарождения бокса он стремительно ворвался на спортивный олимп. Несмотря на взлеты и падения он стал одним из самых харизматичных и любимых чемпионов мира.

Качество: WEB-DL 1080p
Формат: MKV

Видео: MPEG-4 AVC, 7977 Кb/s, 1920x1080, 24.000 fps
Аудио #01: 48 kHz, AC3, 5.1, 384 Kbps | Дублированный | Мосфильм-Мастер | RUS |
Аудио #02: 48 kHz, Е-AC3, 5.1, 640 Kbps | Оригинал | ENG |
скриншот  скриншот  скриншот  скриншот  

Complete name: Boets.Korol.ringa.2022.AMZN.WEB-DL.1080p.ELEKTRI4KA.UNIONGANG.mkv
Format: Matroska
Format version: Version 4
File size: 7.01 GiB
Duration: 1 h 46 min
Overall bit rate: 9 387 kb/s
Movie name: Boets.Korol.ringa.2022.AMZN.WEB-DL.1080p.ELEKTRI4KA.UNIONGANG.
Encoded date: UTC 2022-07-27 23:43:02
Writing application: mkvmerge v8.3.0 ('Over the Horizon') 32bit
Writing library: libebml v1.3.1 + libmatroska v1.4.2

Video
ID: 1
Format: AVC
Format/Info: Advanced Video Codec
Format profile: [email protected]
Format settings: CABAC / 4 Ref Frames
Format settings, CABAC: Yes
Format settings, Reference frames: 4 frames
Codec ID: V_MPEG4/ISO/AVC
Duration: 1 h 46 min
Bit rate mode: Constant
Bit rate: 7 977 kb/s
Nominal bit rate: 10 000 kb/s
Width: 1 920 pixels
Height: 1 080 pixels
Display aspect ratio: 16:9
Frame rate mode: Constant
Frame rate: 24.000 FPS
Color space: YUV
Chroma subsampling: 4:2:0
Bit depth: 8 bits
Scan type: Progressive
Bits/(Pixel*Frame): 0.160
Stream size: 5.96 GiB (85%)
Language: English
Default: Yes
Forced: No
Color range: Limited
Color primaries: BT.709
Transfer characteristics: BT.709
Matrix coefficients: BT.709

Audio #1
ID: 2
Format: AC-3
Format/Info: Audio Coding 3
Commercial name: Dolby Digital
Codec ID: A_AC3
Duration: 1 h 46 min
Bit rate mode: Constant
Bit rate: 384 kb/s
Channel(s): 6 channels
Channel layout: L R C LFE Ls Rs
Sampling rate: 48.0 kHz
Frame rate: 31.250 FPS (1536 SPF)
Compression mode: Lossy
Stream size: 294 MiB (4%)
Title: DUB (Mosfilm-Master)
Language: Russian
Service kind: Complete Main
Default: Yes
Forced: Yes

Audio #2
ID: 3
Format: AC-3
Format/Info: Audio Coding 3
Commercial name: Dolby Digital
Codec ID: A_AC3
Duration: 1 h 46 min
Bit rate mode: Constant
Bit rate: 384 kb/s
Channel(s): 6 channels
Channel layout: L R C LFE Ls Rs
Sampling rate: 48.0 kHz
Frame rate: 31.250 FPS (1536 SPF)
Compression mode: Lossy
Stream size: 294 MiB (4%)
Title: DUB (Mosfilm-Master)
Language: Russian
Service kind: Complete Main
Default: No
Forced: Yes

Audio #3
ID: 4
Format: E-AC-3
Format/Info: Enhanced AC-3
Commercial name: Dolby Digital Plus
Codec ID: A_EAC3
Duration: 1 h 46 min
Bit rate mode: Constant
Bit rate: 640 kb/s
Channel(s): 6 channels
Channel layout: L R C LFE Ls Rs
Sampling rate: 48.0 kHz
Frame rate: 31.250 FPS (1536 SPF)
Compression mode: Lossy
Stream size: 490 MiB (7%)
Title: Original
Language: English
Service kind: Complete Main
Default: No
Forced: No

Text
ID: 5
Format: UTF-8
Codec ID: S_TEXT/UTF8
Codec ID/Info: UTF-8 Plain Text
Duration: 1 h 45 min
Bit rate: 52 b/s
Count of elements: 1826
Stream size: 40.4 KiB (0%)
Language: English
Default: No
Forced: No




Скачать Боец: Король ринга через торрент https://i120.fastpic.org/big/2022/0728/b9/ee6596b47539810b3c9e0a071c5a50b9.jpg Скачать, смотреть онлайн Боец: Король ринга бесплантно в хорошем качестве Описание: История жизни и становления легендарного профессионального боксера Джема Белчера. В эпоху зарождения бокса он стремительно ... 10 10 5
Торрент: Зарегистрирован [2022-07-28 02:51] · скачан: 130 раз
Статус: √ проверено
Размер: 7.01 GB
Как cкачать? Как скачать Боец: Король ринга через торрент | UTorrent

% Раздел Тема Автор DL S | L
Фильмы 2022 [DVDrip, WEB-DLRip, HDrip] (DUB, MVO) [ 1.46 GB ] Боец: Король ринга / Prizefighter: The Life of Jem Belcher | Мосфильм-Мастер | DLRip bober100 Скачать
1 | 0
Фильмы (WEB-DL 720p, 1080p) [ 4.48 GB ] Боец: Король ринга / Prizefighter: The Life of Jem Belcher | Мосфильм-Мастер | 1080p bober100 Скачать
4 | 0
Фильмы 2022 [DVDrip, WEB-DLRip, HDrip] (DUB, MVO) [ 1.46 GB ] Боец: Король ринга / Prizefighter: The Life of Jem Belcher | Мосфильм-Мастер | DLRip bober100 Скачать
3 | 0
T Фильмы 2022 (Звук TS, Cam, VO, DVO) [ 2.17 GB ] Боец: Король ринга / Prizefighter: The Life of Jem Belcher | Pazl Voice | DLRip-AVC bober100 Скачать
1 | 0
Фильмы 2022 [DVDrip, WEB-DLRip, HDrip] (DUB, MVO) [ 1.98 GB ] Боец: Король ринга / Prizefighter: The Life of Jem Belcher | Мосфильм-Мастер | DLRip-AVC Lithuania Скачать
3 | 0

28-11-2019 20:33  

Отключить вcю реклaмy на сайте

    Дорогой пользователь! Огромная просьба, поблагодарите релизера, оцените раздачу и оставьте свои комментарий, если Вы скачали Боец: Король ринга через торрент бесплатно!!
    Комментировать посты могут только пользователи прошедшие не сложную регистрацию
    Показать сообщения:    


    Боец: Король ринга через торрент
    Скачать бесплатно Боец: Король ринга
    Боец: Король ринга скачать торрент
    Боец: Король ринга смотреть онлайн
    Cкачать фильм Боец: Король ринга бесплатно
    Боец: Король ринга скачать торрент в хорошем качестве
    Боец: Король ринга смотреть онлайн бесплатно в хорошем качестве
    Вы не можете начинать темы
    Вы не можете отвечать на сообщения
    Вы не можете редактировать свои сообщения
    Вы не можете удалять свои сообщения
    Вы не можете голосовать в опросах
    Вы не можете прикреплять файлы к сообщениям
    Вы можете скачивать файлы