Всегда рабочее зеркало без VPN и Proxy просто перед .vidak.icu напиши любое слово или цифру, Пример http://ev8p.vidak.icu

Лицензия

MVO

1 сезон

1

1 сезон

iTunes

1 сезон

13

1 сезон

Deluxe

pack

Рекомендуем

Repack

30

ВАЖНО

RePack

MK11

RePack

jed

RePack

fifa19

RePack

RDR2

RePack

NEED FOR SPEED™ PAYBACK

Кинопоиск HD

6 сезон

 Острые козырьки 6 сезон

Все сериалы

все сериалы на PB.wtf

RePack

FAR CRY 5
  
Magnet ссылка

RRR: Рядом ревёт революция / RRR / Rise Roar Revolt (С.С. Раджамули) [2022 г., Боевик, драма, история, WEB-DLRip-AVC] MVO [Кубик в кубе, The Kitchen Russia] от ExKinoRay pb.wtf

RRR: Рядом ревёт революция через торрент pb.wtf

Раздают: 4 [ 165 KB/s ]
Размер: 4.34 GB | Добавлен: 16 д. назад | Торрент скачан:75 раз
Смотреть онлайн RRR: Рядом ревёт революция | Скачать    Ребята, помогите собрать деньги на оплату серверов!!!

30-07-2022 11:55 RRR: Рядом ревёт революция Скачать торрент  


RRR: Рядом ревёт революция / RRR / Rise Roar Revolt
Информация о фильме:
Название: RRR: Рядом ревёт революция
Оригинальное название: RRR / Rise Roar Revolt
Год выхода: 2022
Жанр: Боевик, драма, история
Режиссер: С.С. Раджамули
В ролях: Рам Чаран Теджа, НТР мл., Оливия Моррис, Рэй Стивенсон, Элисон Дуди, Твинкл Шарма, Аджай Девган, Алиа Бхатт, Шрия, Самудира Кани, Чандра Шекхар, Макранд Дешпандэ, Раджив Канакала, Рахул Рамакришна, Эдвард Зонненблик, Варун Будхадев, Спандан Чатурведи, Марк Беннингтон, Ахмарин Анджум, Кирон Арья, Рк Ракеш Боро, Нарендра Сингх Дхами, Р. Бхакти Клейн, Иван Костадинов, Дэниэл О’Кейн, Гурав Пандия

Описание: Британская Индия. Рама - преданный полицейский на службе у колониального правительства, способный расправиться с толпой в одиночку, и местные считают его предателем. Бхим - парень из племени гондов, который вынужден отправиться в Дели на поиски похищенной губернатором маленькой соплеменницы. Узнав об этом, губернатор объявляет награду за его поимку, и, чтобы продвинуться по службе, Рама берётся за это задание. Спасая упавшего в реку мальчика, Рама и Бхим становятся друзьями. Они не знают ни настоящих личностей, ни скрытых мотивов друг друга, но это знакомство положит начало большим переменам.



Страна: Индия
Студия: S.S. Rajamouli
Продолжительность: 03:00:48
Перевод: Профессиональный (многоголосый, закадровый) - Кубик в кубе, The Kitchen Russia



Информация о файле:
Кодек: AVC
Формат: MKV
Качество: WEB-DLRip-AVC
Видео: MPEG-4 AVC, 1024x536, 24.000 fps, 2090 kbps
Аудио RU: AC3, 6 ch, 48 kHz, 448 kbps | Кубик в кубе, The Kitchen Russia
Аудио EN: AC3, 6 ch, 48 kHz, 448 kbps | Hindi
Субтитры: Русские (full), английские (forced)



x264 info: frame I:2578 Avg QP:19.49 size: 57991
x264 info: frame P:77224 Avg QP:21.34 size: 21249
x264 info: frame B:180547 Avg QP:23.10 size: 5901
General
Unique ID : 242072588658564182414648844459645699833 (0xB61D7C16B1B8386609BFAFDC292186F9)
Complete name : D:\Torrent files\RRR.Rise Roar Revolt.2022.MVO.X264.WEB-DLRip-AVC.[wolf1245.ExKinoRay].mkv
Format : Matroska
Format version : Version 4
File size : 4.34 GiB
Duration : 3 h 0 min
Overall bit rate : 3 436 kb/s
Movie name : RRR.Rise Roar Revolt.2022.MVO.X264.WEB-DLRip-AVC.[wolf1245.ExKinoRay]
Encoded date : UTC 2022-07-30 12:35:40
Writing application : mkvmerge v69.0.0 ('Day And Age') 64-bit
Writing library : libebml v1.4.2 + libmatroska v1.6.4

Video
ID : 1
Format : AVC
Format/Info : Advanced Video Codec
Format profile : [email protected]
Format settings : CABAC / 12 Ref Frames
Format settings, CABAC : Yes
Format settings, Reference frames : 12 frames
Codec ID : V_MPEG4/ISO/AVC
Duration : 3 h 0 min
Bit rate : 2 090 kb/s
Width : 1 024 pixels
Height : 536 pixels
Display aspect ratio : 1.910
Frame rate mode : Constant
Frame rate : 24.000 FPS
Color space : YUV
Chroma subsampling : 4:2:0
Bit depth : 8 bits
Scan type : Progressive
Bits/(Pixel*Frame) : 0.159
Stream size : 2.64 GiB (61%)
Title : -=[wolf1245.ExKinoRay]=-
Writing library : x264 core 163 r3060 5db6aa6
Encoding settings : cabac=1 / ref=12 / deblock=1:-2:-2 / analyse=0x3:0x133 / me=umh / subme=9 / psy=1 / psy_rd=0.98:0.10 / mixed_ref=1 / me_range=32 / chroma_me=1 / trellis=2 / 8x8dct=1 / cqm=0 / deadzone=22,11 / fast_pskip=1 / chroma_qp_offset=-3 / threads=10 / lookahead_threads=2 / sliced_threads=0 / nr=0 / decimate=0 / interlaced=0 / bluray_compat=0 / constrained_intra=0 / bframes=12 / b_pyramid=2 / b_adapt=2 / b_bias=0 / direct=3 / weightb=1 / open_gop=0 / weightp=2 / keyint=240 / keyint_min=24 / scenecut=40 / intra_refresh=0 / rc_lookahead=100 / rc=2pass / mbtree=0 / bitrate=2090 / ratetol=1.0 / qcomp=0.75 / qpmin=0 / qpmax=69 / qpstep=4 / cplxblur=20.0 / qblur=0.5 / vbv_maxrate=50000 / vbv_bufsize=62500 / nal_hrd=none / filler=0 / ip_ratio=1.37 / pb_ratio=1.27 / aq=3:0.80
Language : Hindi
Default : Yes
Forced : No

Audio #1
ID : 2
Format : AC-3
Format/Info : Audio Coding 3
Commercial name : Dolby Digital
Codec ID : A_AC3
Duration : 3 h 0 min
Bit rate mode : Constant
Bit rate : 448 kb/s
Channel(s) : 6 channels
Channel layout : L R C LFE Ls Rs
Sampling rate : 48.0 kHz
Frame rate : 31.250 FPS (1536 SPF)
Compression mode : Lossy
Stream size : 579 MiB (13%)
Title : MVO | Кубик в кубе | RUS
Language : Russian
Service kind : Complete Main
Default : Yes
Forced : No

Audio #2
ID : 3
Format : AC-3
Format/Info : Audio Coding 3
Commercial name : Dolby Digital
Codec ID : A_AC3
Duration : 3 h 0 min
Bit rate mode : Constant
Bit rate : 448 kb/s
Channel(s) : 6 channels
Channel layout : L R C LFE Ls Rs
Sampling rate : 48.0 kHz
Frame rate : 31.250 FPS (1536 SPF)
Compression mode : Lossy
Stream size : 579 MiB (13%)
Title : MVO | The Kitchen Russia | RUS
Language : Russian
Service kind : Complete Main
Default : Yes
Forced : No

Audio #3
ID : 4
Format : AC-3
Format/Info : Audio Coding 3
Commercial name : Dolby Digital
Codec ID : A_AC3
Duration : 3 h 0 min
Bit rate mode : Constant
Bit rate : 448 kb/s
Channel(s) : 6 channels
Channel layout : L R C LFE Ls Rs
Sampling rate : 48.0 kHz
Frame rate : 31.250 FPS (1536 SPF)
Compression mode : Lossy
Stream size : 579 MiB (13%)
Title : Original | Hindi
Language : Hindi
Service kind : Complete Main
Default : No
Forced : No

Text #1
ID : 5
Format : UTF-8
Codec ID : S_TEXT/UTF8
Codec ID/Info : UTF-8 Plain Text
Duration : 2 h 56 min
Bit rate : 52 b/s
Count of elements : 1444
Stream size : 67.6 KiB (0%)
Title : [full]
Language : Russian
Default : No
Forced : No

Text #2
ID : 6
Format : UTF-8
Codec ID : S_TEXT/UTF8
Codec ID/Info : UTF-8 Plain Text
Duration : 2 h 56 min
Bit rate : 36 b/s
Count of elements : 1429
Stream size : 47.3 KiB (0%)
Title : English (forced)
Language : English
Default : No
Forced : No
Релиз от:
Автор релиза:
pb.wtf



Скачать RRR: Рядом ревёт революция через торрент http://i120.fastpic.org/big/2022/0730/66/a6073580799bfca19c79bb7ce911ab66.jpg Скачать, смотреть онлайн RRR: Рядом ревёт революция бесплантно в хорошем качестве Описание: Британская Индия. Рама - преданный полицейский на службе у колониального правительства, способный расправиться с толпой в ... 10 10 7
Info! Золотая раздача, скачанное не засчитывается.
Торрент: Зарегистрирован [2022-07-30 12:51] · скачан: 75 раз
Статус: √ проверено
Размер: 4.34 GB
Как cкачать? Как скачать RRR: Рядом ревёт революция через торрент | UTorrent

% Раздел Тема Автор DL S | L
Индийское кино [ 4.5 GB ] RRR: Рядом ревёт революция / RRR / Rise Roar Revolt [2022 история WEB-DLRip-AVC] MVO [Jaskier TVShows] от ExKinoRay Lithuania Скачать
5 | 0


Последний раз редактировалось: Lithuania (2022-07-31 08:27), всего редактировалось 1 раз

28-11-2019 20:33  

Отключить вcю реклaмy на сайте

30-07-2022 13:31 RRR: Рядом ревёт революция Скачать торрент  

Рэю Стивенсону байкот на родине не объявят?pb.wtf



30-07-2022 17:09 RRR: Рядом ревёт революция Скачать торрент  

Пацаны, после таких фильмов вы вряд ли сможете воспринимать голивудское кино, оно просто сосет у бомжа в стороне по сравнению с такими шедеврами как этот фильм, а если Вам этого фильма мало, обязательно посмотрите Золотые прииски Колара.
и я не шучуpb.wtf



30-07-2022 20:11 RRR: Рядом ревёт революция Скачать торрент  

Супер!!!
pb.wtf



30-07-2022 23:05 RRR: Рядом ревёт революция Скачать торрент  

в описании довольно вменяемый сюжет, что ужЕ мегакруто для индусов. экранизировали бы европейцы - было б весьма занятно. боюсь, особый индийский колорит убьет любой ст0ящий сценарий((pb.wtf



30-07-2022 23:21 RRR: Рядом ревёт революция Скачать торрент  

Jaichnik писал(а):

... если Вам этого фильма мало, обязательно посмотрите Золотые прииски Колара.

ну этот смотреть не буду, а вот прииски колара (в двух частях, оказывается) обязательно гляну - больно трейлер занимательный)) спасибо за подсказкуpb.wtf



31-07-2022 19:38 RRR: Рядом ревёт революция Скачать торрент  

Золотые прииски Колара залейте чёт нет тутpb.wtf



02-08-2022 11:11 RRR: Рядом ревёт революция Скачать торрент  

Jaichnik писал(а):

Пацаны, после таких фильмов вы вряд ли сможете воспринимать голивудское кино, оно просто сосет у бомжа в стороне по сравнению с такими шедеврами как этот фильм, а если Вам этого фильма мало, обязательно посмотрите Золотые прииски Колара.
и я не шучу

Бахубали из этой же оперы. 2 фильма.pb.wtf



02-08-2022 11:14 RRR: Рядом ревёт революция Скачать торрент  

ARMAFIA писал(а):

Золотые прииски Колара залейте чёт нет тут

Колара или Калора?pb.wtf



03-08-2022 15:58 RRR: Рядом ревёт революция Скачать торрент  

БОГАТЫРЬ писал(а):

Jaichnik писал(а):

Пацаны, после таких фильмов вы вряд ли сможете воспринимать голивудское кино, оно просто сосет у бомжа в стороне по сравнению с такими шедеврами как этот фильм, а если Вам этого фильма мало, обязательно посмотрите Золотые прииски Колара.
и я не шучу

Бахубали из этой же оперы. 2 фильма.

Истину глаголишь, друг мой. Бахубали - шедеврище. Первая и вторая часть. Я месяц ходил под впечатлением!!!!pb.wtf



03-08-2022 16:06 RRR: Рядом ревёт революция Скачать торрент  

Jaichnik писал(а):

Пацаны, после таких фильмов вы вряд ли сможете воспринимать голивудское кино, оно просто сосет у бомжа в стороне по сравнению с такими шедеврами как этот фильм, а если Вам этого фильма мало, обязательно посмотрите Золотые прииски Колара.
и я не шучу

Благодарю за наводочку, трейлер впечатляет, обязательно глянем. Индийские фильмы меня покорилиpb.wtf



    Дорогой пользователь! Огромная просьба, поблагодарите релизера, оцените раздачу и оставьте свои комментарий, если Вы скачали RRR: Рядом ревёт революция через торрент бесплатно!
    Комментировать посты могут только пользователи прошедшие не сложную регистрацию
    Показать сообщения:    

    RRR: Рядом ревёт революция через торрент
    Скачать бесплатно RRR: Рядом ревёт революция
    RRR: Рядом ревёт революция скачать торрент
    RRR: Рядом ревёт революция смотреть онлайн
    Cкачать фильм RRR: Рядом ревёт революция бесплатно
    RRR: Рядом ревёт революция скачать торрент в хорошем качестве
    RRR: Рядом ревёт революция смотреть онлайн бесплатно в хорошем качестве


    Вы не можете начинать темы
    Вы не можете отвечать на сообщения
    Вы не можете редактировать свои сообщения
    Вы не можете удалять свои сообщения
    Вы не можете голосовать в опросах
    Вы не можете прикреплять файлы к сообщениям
    Вы можете скачивать файлы