Всегда рабочее зеркало без VPN и Proxy просто перед .vidak.icu напиши любое слово или цифру, Пример http://zqu9.vidak.icu

Лицензия

MVO

1 сезон

1

1 сезон

iTunes

1 сезон

13

1 сезон

Deluxe

pack

Рекомендуем

Repack

30

ВАЖНО

RePack

MK11

RePack

jed

RePack

fifa19

RePack

RDR2

RePack

NEED FOR SPEED™ PAYBACK

Кинопоиск HD

6 сезон

 Острые козырьки 6 сезон

Все сериалы

все сериалы на PB.wtf

RePack

FAR CRY 5
  
Magnet ссылка

Обряд / The Long Night (Рич Рэгсдэйл) [2022 г., ужасы, HDRip, Дубляж "Pride Production"] pb.wtf

Обряд через торрент pb.wtf

Раздают: 2 [ 0 KB/s ]
Размер: 732 MB | Добавлен: 17 д. назад | Торрент скачан:16 раз
Смотреть онлайн Обряд | Скачать    Ребята, помогите собрать деньги на оплату серверов!!!

30-07-2022 17:56 Обряд Скачать торрент  

Обряд / The Long Night
Год выпуска: 2022
Страна: США / Sprockefeller Pictures, Adirondack Media Group, El Ride Productions
Жанр: ужасы
Продолжительность: 01:31:02
Перевод: Дубляж (Pride Production)

Режиссер: Рич Рэгсдэйл

rating

В ролях: Скаут Тэйлор-Комптон, Нолан Джерард Фанк, Дебора Кара Ангер, Джефф Фэйи, Кевин Рэгсдэйл, Кинг Орба, Эрика Стасюлевичюте, Джунипер Гази, Уэнди Девор, Рокко Бово

Описание: Грэйс росла в приюте и никогда не знала своих родителей. Спустя годы ей попадается зацепка, способная пролить свет на прошлое, и девушка вместе со своим парнем отправляется из Нью-Йорка в сельскую глушь на юге страны. Но на месте их ожидают не ответы на вопросы, а мистический культ, одержимый желанием исполнить апокалиптическое пророчество.

Качество: HDRip
Формат: AVI
Видео кодек: DivX
Аудио кодек: MP3
Видео: 640x272 (2.35:1), 23.976 fps, DivX Codec 4.x ~983 kbps avg, 0.23 bit/pixel
Аудио: MPEG Layer 3, 2 ch, ~128.00 kbps avg

General
Complete name : G:\ФИЛЬМЫ\Обряд.2022.D.HDRip.avi
Format : AVI
Format/Info : Audio Video Interleave
File size : 732 MiB
Duration : 1 h 31 min
Overall bit rate mode : Variable
Overall bit rate : 1 125 kb/s
Writing application : VirtualDubMod 1.5.10.3 | www.virtualdub-fr.org || (build 2550/release)
Writing library : VirtualDubMod build 2550/release

Video
ID : 0
Format : MPEG-4 Visual
Format profile : Advanced [email protected]
Format settings : BVOP2
Format settings, BVOP : 2
Format settings, QPel : No
Format settings, GMC : No warppoints
Format settings, Matrix : Default (MPEG)
Codec ID : DIVX
Codec ID/Info : Project Mayo
Codec ID/Hint : DivX 4
Duration : 1 h 31 min
Bit rate : 984 kb/s
Width : 640 pixels
Height : 272 pixels
Display aspect ratio : 2.35:1
Frame rate : 23.976 (24000/1001) FPS
Color space : YUV
Chroma subsampling : 4:2:0
Bit depth : 8 bits
Scan type : Progressive
Compression mode : Lossy
Bits/(Pixel*Frame) : 0.236
Stream size : 641 MiB (87%)
Writing library : XviD 1.2.1 (UTC 2008-12-04)

Audio
ID : 1
Format : MPEG Audio
Format version : Version 1
Format profile : Layer 3
Format settings : Joint stereo
Codec ID : 55
Codec ID/Hint : MP3
Duration : 1 h 31 min
Bit rate mode : Variable
Bit rate : 128 kb/s
Channel(s) : 2 channels
Sampling rate : 48.0 kHz
Compression mode : Lossy
Stream size : 83.4 MiB (11%)
Alignment : Aligned on interleaves
Interleave, duration : 24 ms (0.58 video frame)
Interleave, preload duration : 486 ms
Writing library : LAME3.99r
Encoding settings : -m j -V 4 -q 2 -lowpass 17 -b 128

pb.wtf



Скачать Обряд через торрент https://i120.fastpic.org/big/2022/0730/b9/df812a784ba301ffcff28af811203cb9.jpg Скачать, смотреть онлайн Обряд бесплантно в хорошем качестве Описание: Грэйс росла в приюте и никогда не знала своих родителей. Спустя годы ей попадается зацепка, способная пролить свет на прошлое, и ... 10 10 1
Торрент: Зарегистрирован [2022-07-30 17:56] · скачан: 16 раз
Статус: √ проверено
Размер: 732 MB
Как cкачать? Как скачать Обряд через торрент | UTorrent

% Раздел Тема Автор DL S | L
Фильмы 2022 [DVDrip, WEB-DLRip, HDrip] (DUB, MVO) [ 1.88 GB ] Обряд / The Long Night / The Coven [2022 BDRip-AVC] DUB [Pride Production] от ExKinoRay Lithuania Скачать
4 | 0
Фильмы 2022 [DVDrip, WEB-DLRip, HDrip] (DUB, MVO) [ 1.42 GB ] Обряд / Долгая ночь / The Long Night / The Coven [2022 BDRip] DUB [Pride Production] bober100 Скачать
3 | 0

28-11-2019 20:33  

Отключить вcю реклaмy на сайте

    Дорогой пользователь! Огромная просьба, поблагодарите релизера, оцените раздачу и оставьте свои комментарий, если Вы скачали Обряд через торрент бесплатно!
    Комментировать посты могут только пользователи прошедшие не сложную регистрацию
    Показать сообщения:    

    Обряд через торрент
    Скачать бесплатно Обряд
    Обряд скачать торрент
    Обряд смотреть онлайн
    Cкачать фильм Обряд бесплатно
    Обряд скачать торрент в хорошем качестве
    Обряд смотреть онлайн бесплатно в хорошем качестве


    Вы можете начинать темы
    Вы можете отвечать на сообщения
    Вы не можете редактировать свои сообщения
    Вы не можете удалять свои сообщения
    Вы не можете голосовать в опросах
    Вы не можете прикреплять файлы к сообщениям
    Вы можете скачивать файлы