Всегда рабочее зеркало без VPN и Proxy просто перед .vidak.icu напиши любое слово или цифру, Пример http://xfad.vidak.icu

Лицензия

MVO

1 сезон

1

1 сезон

iTunes

1 сезон

13

1 сезон

Deluxe

pack

Рекомендуем

Repack

30

ВАЖНО

RePack

MK11

RePack

jed

RePack

fifa19

RePack

RDR2

RePack

NEED FOR SPEED™ PAYBACK

Кинопоиск HD

6 сезон

 Острые козырьки 6 сезон

Все сериалы

все сериалы на PB.wtf

RePack

FAR CRY 5
  
Magnet ссылка

Один выстрел / One Shot (Джеймс Нанн) [2021, Боевик, триллер, BDRip 720p] MVO [iTunes] pb.wtf

Один выстрел через торрент pb.wtf

Раздают: 5 [ 184 KB/s ]
Размер: 4.3 GB | Добавлен: 16 д. назад | Торрент скачан:63 раза
Смотреть онлайн Один выстрел | Скачать    Ребята, помогите собрать деньги на оплату серверов!!!

30-07-2022 18:10 Один выстрел Скачать торрент  

Один выстрел
One Shot

Год выпуска: 2021
Страна: Великобритания, США
Студия: Amet Entertainment, Blue Box International, Fiction Films, Lip Sync Productions, Signature Films
Жанр: Боевик, триллер
Продолжительность: 01:36:46
Перевод: Профессиональный (многоголосый) | iTunes
Субтитры: Русские (Full), английские (SDH)

Режиссер: Джеймс Нанн

rating

В ролях: Скотт Эдкинс, Эшли Грин, Райан Филипп, Эммануэль Имани, Дино Келли, Джек Парр, Вильям Эль Гарди, Теренс Мэйнард, Джесс Лиодин

Описание: Элитный отряд спецназа отправляется на расположенную на острове секретную базу ЦРУ, чтобы отконвоировать заключенного, но внезапно военные подвергаются нападению неизвестных. Оказавшись в ловушке и отражая многочисленные атаки, бойцы вынуждены всеми силами защищать своего подопечного.

Качество: BDRip 720p
Формат: MKV

Видео: MPEG-4 AVC, ~ 5343 Kb/s, 1280x640, 23.976 fps
Аудио #01: 48 kHz, AC3, 5.1, 384 Kbps | Профессиональный многоголосый | iTunes | RUS |
Аудио #02: 48 kHz, AC3, 5.1, 640 Kbps | Оригинал | ENG |
скриншот  скриншот  скриншот  скриншот  

General
Unique ID: 196683335528778811243785724618935077876 (0x93F7D521B6C3EDADA268AC0275B38BF4)
Complete name: D:Odin.vyistrel.2021.BDRip.1080p.ELEKTRI4KA.UNIONGANG.mkv
Format: Matroska
Format version: Version 4
File size: 10.7 GiB
Duration: 1 h 36 min
Overall bit rate: 15.8 Mb/s
Movie name: Odin.vyistrel.2021.BDRip.1080p.ELEKTRI4KA.UNIONGANG.
Encoded date: UTC 2022-07-30 09:23:31
Writing application: mkvmerge v8.3.0 ('Over the Horizon') 32bit
Writing library: libebml v1.3.1 + libmatroska v1.4.2

Video
ID: 1
Format: AVC
Format/Info: Advanced Video Codec
Format profile: [email protected]
Format settings: CABAC / 4 Ref Frames
Format settings, CABAC: Yes
Format settings, Reference frames: 4 frames
Codec ID: V_MPEG4/ISO/AVC
Duration: 1 h 36 min
Bit rate: 14.8 Mb/s
Width: 1 920 pixels
Height: 960 pixels
Display aspect ratio: 2.000
Frame rate mode: Constant
Frame rate: 23.976 (24000/1001) FPS
Color space: YUV
Chroma subsampling: 4:2:0
Bit depth: 8 bits
Scan type: Progressive
Bits/(Pixel*Frame): 0.334
Stream size: 9.97 GiB (93%)
Writing library: x264 core 157 r2938 2b00a84 [email protected] Mod
Encoding settings: cabac=1 / ref=4 / deblock=1:-3:-3 / analyse=0x3:0x133 / me=umh / subme=10 / psy=1 / psy_rd=1.05:0.00 / mixed_ref=1 / me_range=32 / chroma_me=1 / trellis=2 / 8x8dct=1 / cqm=0 / deadzone=21, 11 / fast_pskip=0 / chroma_qp_offset=-2 / threads=12 / lookahead_threads=2 / sliced_threads=0 / nr=0 / decimate=0 / interlaced=0 / bluray_compat=0 / constrained_intra=0 / bframes=8 / b_pyramid=2 / b_adapt=2 / b_bias=0 / direct=3 / weightb=1 / open_gop=0 / weightp=2 / keyint=250 / keyint_min=24 / scenecut=40 / intra_refresh=0 / rc_lookahead=250 / rc=crf / mbtree=0 / crf=16.8 / qcomp=0.60 / qpmin=0 / qpmax=69 / qpstep=4 / vbv_maxrate=62500 / vbv_bufsize=78125 / crf_max=0.0 / nal_hrd=none / filler=0 / ip_ratio=1.30 / pb_ratio=1.20 / aq=3:0.80
Language: English
Default: Yes
Forced: No
Color range: Limited
Color primaries: BT.709
Matrix coefficients: BT.709

Audio #1
ID: 2
Format: AC-3
Format/Info: Audio Coding 3
Commercial name: Dolby Digital
Codec ID: A_AC3
Duration: 1 h 36 min
Bit rate mode: Constant
Bit rate: 384 kb/s
Channel(s): 6 channels
Channel layout: L R C LFE Ls Rs
Sampling rate: 48.0 kHz
Frame rate: 31.250 FPS (1536 SPF)
Compression mode: Lossy
Stream size: 266 MiB (2%)
Title: MVO (iTunes)
Language: Russian
Service kind: Complete Main
Default: Yes
Forced: Yes

Audio #2
ID: 3
Format: AC-3
Format/Info: Audio Coding 3
Commercial name: Dolby Digital
Codec ID: A_AC3
Duration: 1 h 36 min
Bit rate mode: Constant
Bit rate: 640 kb/s
Channel(s): 6 channels
Channel layout: L R C LFE Ls Rs
Sampling rate: 48.0 kHz
Frame rate: 31.250 FPS (1536 SPF)
Compression mode: Lossy
Stream size: 443 MiB (4%)
Title: Original
Language: English
Service kind: Complete Main
Default: No
Forced: No

Text #1
ID: 4
Format: UTF-8
Codec ID: S_TEXT/UTF8
Codec ID/Info: UTF-8 Plain Text
Duration: 1 h 32 min
Bit rate: 75 b/s
Count of elements: 997
Stream size: 51.1 KiB (0%)
Title: Full
Language: Russian
Default: No
Forced: No

Text #2
ID: 5
Format: UTF-8
Codec ID: S_TEXT/UTF8
Codec ID/Info: UTF-8 Plain Text
Duration: 1 h 31 min
Bit rate: 47 b/s
Count of elements: 1110
Stream size: 32.1 KiB (0%)
Language: English
Default: No
Forced: No

Text #3
ID: 6
Format: UTF-8
Codec ID: S_TEXT/UTF8
Codec ID/Info: UTF-8 Plain Text
Duration: 1 h 32 min
Bit rate: 52 b/s
Count of elements: 1254
Stream size: 35.3 KiB (0%)
Title: SDH
Language: English
Default: No
Forced: No

Menu
00:00:00.000: en:Chapter 01
00:08:51.448: en:Chapter 02
00:16:17.143: en:Chapter 03
00:24:00.981: en:Chapter 04
00:32:01.336: en:Chapter 05
00:40:35.558: en:Chapter 06
00:47:34.143: en:Chapter 07
00:55:21.902: en:Chapter 08
01:05:48.027: en:Chapter 09
01:16:46.852: en:Chapter 10
01:23:59.409: en:Chapter 11
01:33:30.063: en:Chapter 12

pb.wtf



Скачать Один выстрел через торрент https://i120.fastpic.org/big/2022/0730/b5/63d586b7dd99e474a1f24bed8ea54bb5.jpg Скачать, смотреть онлайн Один выстрел бесплантно в хорошем качестве Описание: Элитный отряд спецназа отправляется на расположенную на острове секретную базу ЦРУ, чтобы отконвоировать заключенного, но ... 10 10 4
Торрент: Зарегистрирован [2022-07-30 18:10] · скачан: 63 раз
Статус: √ проверено
Размер: 4.3 GB
Как cкачать? Как скачать Один выстрел через торрент | UTorrent

% Раздел Тема Автор DL S | L
Фильмы 2021 [DVDrip, WEB-DLRip, HDrip] (DUB, MVO) [ 1.42 GB ] Один выстрел / One Shot [2021 BDRip] MVO bober100 Скачать
13 | 0
Фильмы 2021 [DVDrip, WEB-DLRip, HDrip] (DUB, MVO) [ 2.44 GB ] Один выстрел / One Shot [2021 HDRip-AVC] MVO bober100 Скачать
7 | 0
Фильмы (Blu-ray, BD-Remux, HDDVD) [ 18.52 GB ] Один выстрел / One Shot [2021 BD Remux 1080p] MVO bober100 Скачать
1 | 0
Фильмы [HD 720p, 1080p] (Хороший звук DUB, MVO) [ 10.67 GB ] Один выстрел / One Shot [2021 BDRip 1080p] MVO bober100 Скачать
7 | 1
Фильмы 2021 [DVDrip, WEB-DLRip, HDrip] (DUB, MVO) [ 746 MB ] Один выстрел / One Shot [2021 BDRip] MVO bober100 Скачать
2 | 0
T Фильмы 2021 (Звук TS, Cam, VO, DVO) [ 1.86 GB ] Один выстрел / One Shot [2021 HDRip-AVC] DVO [Pazl Voice] от ExKinoRay Lithuania Скачать
1 | 0
Документальные фильмы и телепередачи [ 454 MB ] Снайперы. Один выстрел - один труп / Snipers: One Shot One Kill [2002 Документальный SATRip ] Хорват Скачать
1 | 0

28-11-2019 20:33  

Отключить вcю реклaмy на сайте

    Дорогой пользователь! Огромная просьба, поблагодарите релизера, оцените раздачу и оставьте свои комментарий, если Вы скачали Один выстрел через торрент бесплатно!
    Комментировать посты могут только пользователи прошедшие не сложную регистрацию
    Показать сообщения:    

    Один выстрел через торрент
    Скачать бесплатно Один выстрел
    Один выстрел скачать торрент
    Один выстрел смотреть онлайн
    Cкачать фильм Один выстрел бесплатно
    Один выстрел скачать торрент в хорошем качестве
    Один выстрел смотреть онлайн бесплатно в хорошем качестве


    Вы не можете начинать темы
    Вы не можете отвечать на сообщения
    Вы не можете редактировать свои сообщения
    Вы не можете удалять свои сообщения
    Вы не можете голосовать в опросах
    Вы не можете прикреплять файлы к сообщениям
    Вы можете скачивать файлы