Всегда рабочее зеркало без VPN и Proxy просто перед .vidak.icu напиши любое слово или цифру, Пример http://zdm4.vidak.icu

Лицензия

MVO

1 сезон

1

1 сезон

iTunes

1 сезон

13

1 сезон

Deluxe

pack

Рекомендуем

Repack

30

ВАЖНО

RePack

MK11

RePack

jed

RePack

fifa19

RePack

RDR2

RePack

NEED FOR SPEED™ PAYBACK

Кинопоиск HD

6 сезон

 Острые козырьки 6 сезон

Все сериалы

все сериалы на PB.wtf

RePack

FAR CRY 5
  
Magnet ссылка

Виво / Vivo (Кирк де Микко, Брэндон Джеффордс) [2021, Мультфильм, мюзикл, комедия, приключения, семейный, BDRip 720p] DUB (rus, ukr) [Невафильм / Netflix] pb.wtf

Виво через торрент pb.wtf

Раздают: 4 [ 3 KB/s ]
Размер: 5.5 GB | Добавлен: 16 д. назад | Торрент скачан:41 раз
Смотреть онлайн Виво | Скачать    Ребята, помогите собрать деньги на оплату серверов!!!

01-08-2022 03:49 Виво Скачать торрент  

Виво | Vivo
Год выпуска: 2021
Страна: Канада, США
Студия: Columbia Pictures Corporation, Sony Pictures Animation
Жанр: Мультфильм, мюзикл, комедия, приключения, семейный
Продолжительность: 01:35:40
Перевод: Дублированный | Невафильм по заказу Netflix
Субтитры: Русские (Forced, full), украинские (Forced, full), английские

Режиссер: Кирк де Микко, Брэндон Джеффордс

rating

В ролях: Лин-Мануэль Миранда, Зои Салдана, Хуан Де Маркос Гонзалез, Майкл Рукер, Брайан Тайри Генри, Николь Байер, Глория Эстефан, Лесли Дэвид Бэйкер, Кэти Лоус

Описание: Кинкажу Виво отправляется в незабываемое путешествие, чтобы исполнить песню, написанную его хозяином Андресом для его возлюбленной Марты.

Качество: BDRip 720p
Формат: MKV

Видео: MPEG-4 AVC, 1280x536, 5585 Кbit/s, 23.976 fps
Аудио #01: 48 kHz, AC3, 5.1, 640 Kbps | Netflix | RUS |
Аудио #02: 48 kHz, E-AC3, 5.1, 640 Kbps | Netflix | RUS |
Аудио #03: 48 kHz, E-AC3, 5.1, 640 Kbps | Netflix | UKR |
Аудио #04: 48 kHz, AC3, 5.1, 640 Kbps | Оригинал | ENG |
скриншот  скриншот  скриншот  скриншот  скриншот  скриншот  

General
Unique ID : 114580213563989142644292583351243678113 (0x563358AFE14D44EEB5BA3A5D0762A1A1)
Complete name : E:VideosVivo.2021.BDRip.720p.seleZen.mkv
Format : Matroska
Format version : Version 4
File size : 5.50 GiB
Duration : 1 h 39 min
Overall bit rate : 7 888 kb/s
Movie name : Vivo 2021 from seleZen
Encoded date : UTC 2022-07-31 17:12:15
Writing application : mkvmerge v59.0.0 ('Shining Star') 64-bit
Writing library : libebml v1.4.2 + libmatroska v1.6.4

Video
ID : 1
Format : AVC
Format/Info : Advanced Video Codec
Format profile : [email protected]
Format settings : CABAC / 12 Ref Frames
Format settings, CABAC : Yes
Format settings, Reference : 12 frames
Codec ID : V_MPEG4/ISO/AVC
Duration : 1 h 35 min
Bit rate : 5 585 kb/s
Width : 1 280 pixels
Height : 536 pixels
Display aspect ratio : 2.40:1
Frame rate mode : Constant
Frame rate : 23.976 (24000/1001) FPS
Color space : YUV
Chroma subsampling : 4:2:0
Bit depth : 8 bits
Scan type : Progressive
Bits/(Pixel*Frame) : 0.340
Stream size : 3.73 GiB (68%)
Title : MTeam
Writing library : x264 core 157 r2938 2b00a84 [email protected] Mod
Encoding settings : cabac=1 / ref=12 / deblock=1:-3:-3 / analyse=0x3:0x133 / me=umh / subme=10 / psy=1 / psy_rd=1.05:0.00 / mixed_ref=1 / me_range=32 / chroma_me=1 / trellis=2 / 8x8dct=1 / cqm=0 / deadzone=21, 11 / fast_pskip=0 / chroma_qp_offset=-2 / threads=12 / lookahead_threads=2 / sliced_threads=0 / nr=0 / decimate=0 / interlaced=0 / bluray_compat=0 / constrained_intra=0 / bframes=8 / b_pyramid=2 / b_adapt=2 / b_bias=0 / direct=3 / weightb=1 / open_gop=0 / weightp=2 / keyint=250 / keyint_min=24 / scenecut=40 / intra_refresh=0 / rc_lookahead=250 / rc=crf / mbtree=0 / crf=16.8 / qcomp=0.60 / qpmin=0 / qpmax=69 / qpstep=4 / vbv_maxrate=62500 / vbv_bufsize=78125 / crf_max=0.0 / nal_hrd=none / filler=0 / ip_ratio=1.30 / pb_ratio=1.20 / aq=3:0.80
Language : English
Default : Yes
Forced : No
Color range : Limited
Color primaries : BT.709
Matrix coefficients : BT.709

Audio #1
ID : 2
Format : AC-3
Format/Info : Audio Coding 3
Commercial name : Dolby Digital
Codec ID : A_AC3
Duration : 1 h 39 min
Bit rate mode : Constant
Bit rate : 640 kb/s
Channel(s) : 6 channels
Channel layout : L R C LFE Ls Rs
Sampling rate : 48.0 kHz
Frame rate : 31.250 FPS (1536 SPF)
Compression mode : Lossy
Stream size : 457 MiB (8%)
Title : Dub
Language : Russian
Service kind : Complete Main
Default : Yes
Forced : Yes

Audio #2
ID : 3
Format : E-AC-3
Format/Info : Enhanced AC-3
Commercial name : Dolby Digital Plus
Codec ID : A_EAC3
Duration : 1 h 39 min
Bit rate mode : Constant
Bit rate : 640 kb/s
Channel(s) : 6 channels
Channel layout : L R C LFE Ls Rs
Sampling rate : 48.0 kHz
Frame rate : 31.250 FPS (1536 SPF)
Compression mode : Lossy
Stream size : 457 MiB (8%)
Title : Dub
Language : Russian
Service kind : Complete Main
Default : No
Forced : No

Audio #3
ID : 4
Format : E-AC-3
Format/Info : Enhanced AC-3
Commercial name : Dolby Digital Plus
Codec ID : A_EAC3
Duration : 1 h 39 min
Bit rate mode : Constant
Bit rate : 640 kb/s
Channel(s) : 6 channels
Channel layout : L R C LFE Ls Rs
Sampling rate : 48.0 kHz
Frame rate : 31.250 FPS (1536 SPF)
Compression mode : Lossy
Stream size : 457 MiB (8%)
Title : Dub
Language : Ukrainian
Service kind : Complete Main
Default : No
Forced : No

Audio #4
ID : 5
Format : AC-3
Format/Info : Audio Coding 3
Commercial name : Dolby Digital
Codec ID : A_AC3
Duration : 1 h 35 min
Bit rate mode : Constant
Bit rate : 640 kb/s
Channel(s) : 6 channels
Channel layout : L R C LFE Ls Rs
Sampling rate : 48.0 kHz
Frame rate : 31.250 FPS (1536 SPF)
Compression mode : Lossy
Stream size : 438 MiB (8%)
Title : Original
Language : English
Service kind : Complete Main
Default : No
Forced : No

Text #1
ID : 6
Format : UTF-8
Codec ID : S_TEXT/UTF8
Codec ID/Info : UTF-8 Plain Text
Duration : 1 h 26 min
Bit rate : 1 b/s
Frame rate : 0.006 FPS
Count of elements : 29
Stream size : 1.18 KiB (0%)
Title : Forced
Language : Russian
Default : Yes
Forced : Yes

Text #2
ID : 7
Format : UTF-8
Codec ID : S_TEXT/UTF8
Codec ID/Info : UTF-8 Plain Text
Duration : 1 h 34 min
Bit rate : 88 b/s
Frame rate : 0.224 FPS
Count of elements : 1267
Stream size : 61.2 KiB (0%)
Title : Full
Language : Russian
Default : No
Forced : No

Text #3
ID : 8
Format : UTF-8
Codec ID : S_TEXT/UTF8
Codec ID/Info : UTF-8 Plain Text
Duration : 1 h 34 min
Bit rate : 2 b/s
Frame rate : 0.008 FPS
Count of elements : 46
Stream size : 1.60 KiB (0%)
Title : Forced
Language : Ukrainian
Default : No
Forced : No

Text #4
ID : 9
Format : UTF-8
Codec ID : S_TEXT/UTF8
Codec ID/Info : UTF-8 Plain Text
Duration : 1 h 34 min
Bit rate : 99 b/s
Frame rate : 0.235 FPS
Count of elements : 1331
Stream size : 68.5 KiB (0%)
Title : Full
Language : Ukrainian
Default : No
Forced : No

Text #5
ID : 10
Format : UTF-8
Codec ID : S_TEXT/UTF8
Codec ID/Info : UTF-8 Plain Text
Duration : 1 h 32 min
Bit rate : 84 b/s
Frame rate : 0.306 FPS
Count of elements : 1697
Stream size : 57.3 KiB (0%)
Title : SDH
Language : English
Default : No
Forced : No

Menu
00:00:00.000 : Chapter 01
00:05:41.299 : Chapter 02
00:08:37.100 : Chapter 03
00:13:42.405 : Chapter 04
00:18:20.558 : Chapter 05
00:23:15.185 : Chapter 06
00:28:14.610 : Chapter 07
00:35:13.028 : Chapter 08
00:40:35.850 : Chapter 09
00:44:55.401 : Chapter 10
00:50:09.423 : Chapter 11
00:55:39.336 : Chapter 12
01:01:31.438 : Chapter 13
01:06:13.386 : Chapter 14
01:10:50.997 : Chapter 15
01:17:17.591 : Chapter 16

pb.wtf



Скачать Виво через торрент https://i120.fastpic.org/big/2022/0801/42/f00eb4af94c09e6f5e6ddd28ae8e2042.jpg Скачать, смотреть онлайн Виво бесплантно в хорошем качестве Описание: Кинкажу Виво отправляется в незабываемое путешествие, чтобы исполнить песню, написанную его хозяином Андресом для его ... 10 10 3
Торрент: Зарегистрирован [2022-08-01 03:49] · скачан: 41 раз
Статус: √ проверено
Размер: 5.5 GB
Как cкачать? Как скачать Виво через торрент | UTorrent

% Раздел Тема Автор DL S | L
Иностранные мультфильмы [ 746 MB ] Виво / Vivo [2021 Мультфильм мюзикл BDRip] DUB [Невафильм / Netflix] bober100 Скачать
3 | 0
Зарубежные Мультфильмы (BDRip 1080p, 720p, Blu-ray, BD-Remux) [ 21.52 GB ] Виво / Vivo [2021 Мультфильм мюзикл BD Remux 1080p] DUB [Невафильм / Netflix] bober100 Скачать
1 | 0
Иностранные мультфильмы [ 2.47 GB ] Виво / Vivo [2021 Мультфильм мюзикл HDRip-AVC] DUB [Невафильм / Netflix] bober100 Скачать
2 | 0
Иностранные мультфильмы [ 1.46 GB ] Виво / Vivo [2021 мультфильм мюзикл WEB-DLRip-AVC] Dub [Netflix] sokol_ok Скачать
5 | 0
Иностранные мультфильмы [ 2.42 GB ] Виво / Vivo [2021 Мультфильм мюзикл WEB-DLRip-AVC] DUB [Netflix] от MediaBit Lithuania Скачать
2 | 0
Иностранные мультфильмы [ 1.46 GB ] Виво / Vivo [2021 Мультфильм мюзикл BDRip] DUB [Невафильм / Netflix] bober100 Скачать
1 | 0
Зарубежные Мультфильмы (BDRip 1080p, 720p, Blu-ray, BD-Remux) [ 11.68 GB ] Виво / Vivo [2021 Мультфильм мюзикл BDRip 1080p] DUB [Невафильм / Netflix] bober100 Скачать
6 | 0

28-11-2019 20:33  

Отключить вcю реклaмy на сайте

    Дорогой пользователь! Огромная просьба, поблагодарите релизера, оцените раздачу и оставьте свои комментарий, если Вы скачали Виво через торрент бесплатно!
    Комментировать посты могут только пользователи прошедшие не сложную регистрацию
    Показать сообщения:    

    Виво через торрент
    Скачать бесплатно Виво
    Виво скачать торрент
    Виво смотреть онлайн
    Cкачать фильм Виво бесплатно
    Виво скачать торрент в хорошем качестве
    Виво смотреть онлайн бесплатно в хорошем качестве


    Вы не можете начинать темы
    Вы не можете отвечать на сообщения
    Вы не можете редактировать свои сообщения
    Вы не можете удалять свои сообщения
    Вы не можете голосовать в опросах
    Вы не можете прикреплять файлы к сообщениям
    Вы можете скачивать файлы