Всегда рабочее зеркало без VPN и Proxy просто перед .vidak.icu напиши любое слово или цифру, Пример http://sk97.vidak.icu

Лицензия

MVO

1 сезон

1

1 сезон

iTunes

1 сезон

13

1 сезон

Deluxe

pack

Рекомендуем

Repack

30

ВАЖНО

RePack

MK11

RePack

jed

RePack

fifa19

RePack

RDR2

RePack

NEED FOR SPEED™ PAYBACK

Кинопоиск HD

6 сезон

 Острые козырьки 6 сезон

Все сериалы

все сериалы на PB.wtf

RePack

FAR CRY 5
  
Magnet ссылка

Взрывная игра / Опасное место / Hot Seat (Джеймс Каллен Брэссак) [2022, Триллер, HDRip-AVC] DUB [Lucky Production] pb.wtf

Взрывная игра через торрент pb.wtf

Раздают: 2 [ 0 KB/s ]
Размер: 2.1 GB | Добавлен: 16 д. назад | Торрент скачан:76 раз
Смотреть онлайн Взрывная игра | Скачать    Ребята, помогите собрать деньги на оплату серверов!!!

01-08-2022 04:51 Взрывная игра Скачать торрент  

Взрывная игра
Опасное место
Hot Seat

Год выпуска: 2022
Страна: США
Студия: BondIt, Buffalo 8 Productions, Emmett/Furla Films, Grindstone Studios, Verdi Productions
Жанр: Триллер
Продолжительность: 01:38:59
Перевод: Дублированный | Lucky Production
Субтитры: Русские (Forced, full), английские

Режиссер: Джеймс Каллен Брэссак

rating

В ролях: Мэл Гибсон, Шэннен Доэрти, Кевин Диллон, Лидия Халл, Майкл Уэлш, Сэм Асгари, Кейт Кацман, Эдди Стиплз, Анна Харр, Кит Джардин

Описание: Эксперт по информационным технологиях Фрайар обнаруживает, что кто-то спрятал бомбу под его рабочим креслом. Неизвестный злоумышленник требует, что Фрайар украл цифровые деньги из крупнейшего банка, оснащенного совершенной системой безопасности. В противном случае, умрет сам эксперт и его дочь. Пока Фрайар пытается проникнуть в банк, к нему на помощь спешит эксперт из полиции, который должен обезвредить бомбу. «Взрывная игра» — остросюжетный кибер-триллер с Мэлом Гибсоном в главной роли.

Качество: HDRip-AVC
Формат: MKV

Видео: MPEG-4 AVC, 1024x428 at 23.976 fps, [email protected], ~2132 kbps
Аудио#1: 48 kHz, AC3 Dolby Digital, 3/2 (L, C, R, l, r) + LFE ch, ~448 Kbps
Аудио#2: 48 kHz, AC3 Dolby Digital, 3/2 (L, C, R, l, r) + LFE ch, ~448 Kbps
скриншот  скриншот  скриншот  скриншот  скриншот  

x264 [info]: frame I:1752 Avg QP:15.91 size: 58878
x264 [info]: frame P:29897 Avg QP:17.56 size: 22003
x264 [info]: frame B:110746 Avg QP:18.88 size: 7419

General
Unique ID : 265839268737715391627935870506801002785 (0xC7FEC7E2E0285B99509E66180CEF7921)
Complete name : D:Hot.Seat.2022.HDRip.x264.seleZen.mkv
Format : Matroska
Format version : Version 4
File size : 2.10 GiB
Duration : 1 h 38 min
Overall bit rate : 3 030 kb/s
Movie name : Hot.Seat.2022.HDRip.x264.seleZen
Encoded date : UTC 2022-07-31 09:41:41
Writing application : mkvmerge v63.0.0 ('Everything') 64-bit
Writing library : libebml v1.4.2 + libmatroska v1.6.4
Cover : Yes
Attachments : cover.jpg / small_cover.jpg

Video
ID : 1
Format : AVC
Format/Info : Advanced Video Codec
Format profile : [email protected]
Format settings : CABAC / 12 Ref Frames
Format settings, CABAC : Yes
Format settings, Reference : 12 frames
Codec ID : V_MPEG4/ISO/AVC
Duration : 1 h 38 min
Bit rate : 2 132 kb/s
Width : 1 024 pixels
Height : 428 pixels
Display aspect ratio : 2.40:1
Frame rate mode : Constant
Frame rate : 23.976 (24000/1001) FPS
Color space : YUV
Chroma subsampling : 4:2:0
Bit depth : 8 bits
Scan type : Progressive
Bits/(Pixel*Frame) : 0.203
Stream size : 1.47 GiB (70%)
Title : -=DoMiNo=-
Writing library : x264 core 164 by -=DoMiNo=-
Encoding settings : cabac=1 / ref=12 / deblock=1:-3:-3 / analyse=0x3:0x133 / me=umh / subme=11 / psy=1 / psy_rd=1.03:0.05 / mixed_ref=1 / me_range=32 / chroma_me=1 / trellis=2 / 8x8dct=1 / cqm=0 / deadzone=21,11 / fast_pskip=0 / chroma_qp_offset=-3 / threads=17 / lookahead_threads=3 / sliced_threads=0 / nr=0 / decimate=0 / interlaced=0 / bluray_compat=0 / constrained_intra=0 / bframes=10 / b_pyramid=2 / b_adapt=2 / b_bias=0 / direct=3 / weightb=1 / open_gop=0 / weightp=2 / keyint=250 / keyint_min=23 / scenecut=40 / intra_refresh=0 / rc_lookahead=60 / rc=crf / mbtree=0 / crf=18.0 / qcomp=0.60 / qpmin=0 / qpmax=69 / qpstep=4 / vbv_maxrate=50000 / vbv_bufsize=62500 / crf_max=0.0 / nal_hrd=none / filler=0 / ip_ratio=1.30 / pb_ratio=1.20 / aq=3:0.80
Language : English
Default : Yes
Forced : No

Audio #1
ID : 2
Format : AC-3
Format/Info : Audio Coding 3
Commercial name : Dolby Digital
Codec ID : A_AC3
Duration : 1 h 38 min
Bit rate mode : Constant
Bit rate : 448 kb/s
Channel(s) : 6 channels
Channel layout : L R C LFE Ls Rs
Sampling rate : 48.0 kHz
Frame rate : 31.250 FPS (1536 SPF)
Compression mode : Lossy
Stream size : 317 MiB (15%)
Title : Dub_[Lucky Production]
Language : Russian
Service kind : Complete Main
Default : Yes
Forced : Yes

Audio #2
ID : 3
Format : AC-3
Format/Info : Audio Coding 3
Commercial name : Dolby Digital
Codec ID : A_AC3
Duration : 1 h 38 min
Bit rate mode : Constant
Bit rate : 448 kb/s
Channel(s) : 6 channels
Channel layout : L R C LFE Ls Rs
Sampling rate : 48.0 kHz
Frame rate : 31.250 FPS (1536 SPF)
Compression mode : Lossy
Stream size : 317 MiB (15%)
Title : Original
Language : English
Service kind : Complete Main
Default : No
Forced : No

Text #1
ID : 4
Format : UTF-8
Codec ID : S_TEXT/UTF8
Codec ID/Info : UTF-8 Plain Text
Duration : 1 h 33 min
Bit rate : 2 b/s
Count of elements : 47
Stream size : 1.71 KiB (0%)
Title : Forced
Language : Russian
Default : Yes
Forced : No

Text #2
ID : 5
Format : UTF-8
Codec ID : S_TEXT/UTF8
Codec ID/Info : UTF-8 Plain Text
Duration : 1 h 34 min
Bit rate : 93 b/s
Count of elements : 1606
Stream size : 64.7 KiB (0%)
Title : Full
Language : Russian
Default : No
Forced : No

Text #3
ID : 6
Format : UTF-8
Codec ID : S_TEXT/UTF8
Codec ID/Info : UTF-8 Plain Text
Duration : 1 h 30 min
Bit rate : 72 b/s
Count of elements : 1389
Stream size : 48.1 KiB (0%)
Title : Full
Language : English
Default : No
Forced : No

Menu
00:00:00.000 : en:Chapter 01
00:11:24.684 : en:Chapter 02
00:22:48.367 : en:Chapter 03
00:29:31.770 : en:Chapter 04
00:37:49.267 : en:Chapter 05
00:45:16.714 : en:Chapter 06
00:53:33.210 : en:Chapter 07
01:01:53.710 : en:Chapter 08
01:10:07.203 : en:Chapter 09
01:20:28.824 : en:Chapter 10
01:30:44.439 : en:Chapter 11
01:33:19.803 : en:Chapter 12

pb.wtf



Скачать Взрывная игра через торрент https://i120.fastpic.org/big/2022/0709/33/b001f33d0f0233b2a9c8be6051daa933.jpg Скачать, смотреть онлайн Взрывная игра бесплантно в хорошем качестве Описание: Эксперт по информационным технологиях Фрайар обнаруживает, что кто-то спрятал бомбу под его рабочим креслом. Неизвестный ... 8.7 10 7
Торрент: Зарегистрирован [2022-08-01 04:51] · скачан: 76 раз
Статус: √ проверено
Размер: 2.1 GB
Как cкачать? Как скачать Взрывная игра через торрент | UTorrent

% Раздел Тема Автор DL S | L
Фильмы [HD 720p, 1080p] (Хороший звук DUB, MVO) [ 12.37 GB ] Взрывная игра / Опасное место / Hot Seat [2022 BDRip 1080p] DUB [Lucky Production] bober100 Скачать
7 | 0
Фильмы 2022 [DVDrip, WEB-DLRip, HDrip] (DUB, MVO) [ 746 MB ] Взрывная игра / Опасное место / Hot Seat [2022 BDRip] DUB [Lucky Production] bober100 Скачать
2 | 0
Фильмы [HD 720p, 1080p] (Хороший звук DUB, MVO) [ 4.4 GB ] Взрывная игра / Опасное место / Hot Seat [2022 BDRip 720p] DUB [Lucky Production] bober100 Скачать
10 | 0
Фильмы 2022 [DVDrip, WEB-DLRip, HDrip] (DUB, MVO) [ 1.46 GB ] Взрывная игра / Опасное место / Hot Seat [2022 BDRip] DUB [Lucky Production] bober100 Скачать
8 | 0

28-11-2019 20:33  

Отключить вcю реклaмy на сайте

    Дорогой пользователь! Огромная просьба, поблагодарите релизера, оцените раздачу и оставьте свои комментарий, если Вы скачали Взрывная игра через торрент бесплатно!
    Комментировать посты могут только пользователи прошедшие не сложную регистрацию
    Показать сообщения:    

    Взрывная игра через торрент
    Скачать бесплатно Взрывная игра
    Взрывная игра скачать торрент
    Взрывная игра смотреть онлайн
    Cкачать фильм Взрывная игра бесплатно
    Взрывная игра скачать торрент в хорошем качестве
    Взрывная игра смотреть онлайн бесплатно в хорошем качестве


    Вы можете начинать темы
    Вы можете отвечать на сообщения
    Вы не можете редактировать свои сообщения
    Вы не можете удалять свои сообщения
    Вы не можете голосовать в опросах
    Вы не можете прикреплять файлы к сообщениям
    Вы можете скачивать файлы