Доктор Стрэндж

Лицензия

Добыча

Дубляж

Дом дракона

1 сезон

Тор

Дубляж

В эфире

Дубляж

Там, где раки поют

MVO

Властелин колец

1 сезон

Deluxe

pack

Рекомендуем

30

Пиратка

ВАЖНО

ВАЖНО

Ghostwire

Пиратка

jed

RePack

nioh2

RePack

RDR2

RePack

NEED FOR SPEED™ PAYBACK

RePack

скачать торрент

Кинопоиск HD

Острые козырьки 6 сезон

6 сезон

FAR CRY 6

RePack

скачать торрент

Лицензия

скачать торрент

MVO

1

1 сезон

скачать торрент

1 сезон

скачать торрент

Лицензия

  

Чёрный телефон / The Black Phone (Скотт Дерриксон) [2021, Ужасы, триллер, UHD WEB-DL-HEVC 2160p] Дубляж [Пифагор] +2xMVO [Jaskier, TVShows] +AVO [Д. Есарев]

Чёрный телефон через торрент pb.wtf

Раздают: 1 [ 0 KB/s ]
Размер: 19.08 GB | Добавлен: 2 мес. 24 д. назад | Торрент скачан:65 раз
Смотреть онлайн | Скачать   

01-08-2022 07:10 Чёрный телефон Скачать торрент  

Чёрный телефон
The Black Phone

Год выпуска: 2021
Страна: США
Выпущено: Universal Pictures, Blumhouse Productions, Crooked Highway
Жанр: Ужасы, триллер
Продолжительность: 01:43:22
Перевод(ы):
#1: Дублированный | Пифагор
#2: Профессиональный многоголосый | Jaskier
#3: Профессиональный многоголосый | TVShows
#4: Авторский | Д. Есарев
Субтитры: Русские (Forced, 2 x Full), английские

Режиссер: Скотт Дерриксон

rating

В ролях: Мэйсон Темз, Мадлен Макгроу, Итэн Хоук, Джереми Дэвис, Э. Роджер Митчелл, Трой Радсил, Джеймс Рэнсон, Мигель Казарез Мора, Ребекка Кларк, Дж. Гэйвен Уайлд

Описание: Застенчивый, но умный 13-летний Финни Шоу похищен маньяком-убийцей и заперт в звуконепроницаемом подвале, откуда никто не услышит его крики о помощи. Но когда с неработающего телефона на стене раздается звонок, Финни обнаруживает, что может слышать голоса предыдущих жертв убийцы. Они хотят помочь мальчику избежать той ужасной участи, которая постигла их самих.

Качество: UHD WEB-DL-HEVC 2160p
Формат: MKV

Видео: 3840x2160 at 23.976 fps, MPEG-H HEVC HDR ~ 24200 kbps avg
Аудио #01: 48 kHz, AC3, 5.1, 384 Kbps | Дублированный | Пифагор | RUS |
Аудио #02: 48 kHz, AC3, 5.1, 384 Kbps | Профессиональный многоголосый | Jaskier | RUS |
Аудио #03: 48 kHz, AC3, 2.0, 192 Kbps | Профессиональный многоголосый | TVShows | RUS |
Аудио #04: 48 kHz, AC3, 5.1, 448 Kbps | Авторский | Д. Есарев (uncensored) | RUS |
Аудио #05: 48 kHz, E-AC3+Atmos, 5.1, 768 Kbps | Оригинал | ENG |
скриншот  скриншот  скриншот  скриншот  

General
Unique ID : 258858776850808114652595762839443966570 (0xC2BE63107EB2F4DA38187AC54D5F8A6A)
Complete name : F:\Video\The.Black.Phone.2021.D.MVO.AVO.WEB-DL.2160p.HDR.seleZen.mkv
Format : Matroska
Format version : Version 4
File size : 19.1 GiB
Duration : 1 h 43 min
Overall bit rate : 26.4 Mb/s
Movie name : The Black Phone 2021 from seleZen
Encoded date : UTC 2022-09-09 10:08:41
Writing application : mkvmerge v59.0.0 ('Shining Star') 64-bit
Writing library : libebml v1.4.2 + libmatroska v1.6.4

Video
ID : 1
Format : HEVC
Format/Info : High Efficiency Video Coding
Format profile : Main [email protected]@High
HDR format : SMPTE ST 2086, HDR10 compatible
Codec ID : V_MPEGH/ISO/HEVC
Duration : 1 h 43 min
Bit rate : 24.2 Mb/s
Width : 3 840 pixels
Height : 2 160 pixels
Display aspect ratio : 16:9
Frame rate mode : Constant
Frame rate : 23.976 (24000/1001) FPS
Color space : YUV
Chroma subsampling : 4:2:0 (Type 2)
Bit depth : 10 bits
Bits/(Pixel*Frame) : 0.122
Stream size : 17.5 GiB (92%)
Language : English
Default : Yes
Forced : No
Color range : Limited
Color primaries : BT.2020
Transfer characteristics : PQ
Matrix coefficients : BT.2020 non-constant
Mastering display color pri : BT.2020
Mastering display luminance : min: 0.0050 cd/m2, max: 1000 cd/m2
Maximum Content Light Level : 77 cd/m2
Maximum Frame-Average Light : 53 cd/m2

Audio #1
ID : 2
Format : AC-3
Format/Info : Audio Coding 3
Commercial name : Dolby Digital
Codec ID : A_AC3
Duration : 1 h 43 min
Bit rate mode : Constant
Bit rate : 384 kb/s
Channel(s) : 6 channels
Channel layout : L R C LFE Ls Rs
Sampling rate : 48.0 kHz
Frame rate : 31.250 FPS (1536 SPF)
Compression mode : Lossy
Stream size : 284 MiB (1%)
Title : Дубляж
Language : Russian
Service kind : Complete Main
Default : Yes
Forced : Yes

Audio #2
ID : 3
Format : AC-3
Format/Info : Audio Coding 3
Commercial name : Dolby Digital
Codec ID : A_AC3
Duration : 1 h 43 min
Bit rate mode : Constant
Bit rate : 384 kb/s
Channel(s) : 6 channels
Channel layout : L R C LFE Ls Rs
Sampling rate : 48.0 kHz
Frame rate : 31.250 FPS (1536 SPF)
Compression mode : Lossy
Stream size : 284 MiB (1%)
Title : MVO [Jaskier]
Language : Russian
Service kind : Complete Main
Default : No
Forced : No

Audio #3
ID : 4
Format : AC-3
Format/Info : Audio Coding 3
Commercial name : Dolby Digital
Codec ID : A_AC3
Duration : 1 h 43 min
Bit rate mode : Constant
Bit rate : 192 kb/s
Channel(s) : 2 channels
Channel layout : L R
Sampling rate : 48.0 kHz
Frame rate : 31.250 FPS (1536 SPF)
Compression mode : Lossy
Stream size : 142 MiB (1%)
Title : MVO [TVShows]
Language : Russian
Service kind : Complete Main
Default : No
Forced : No

Audio #4
ID : 5
Format : AC-3
Format/Info : Audio Coding 3
Commercial name : Dolby Digital
Codec ID : A_AC3
Duration : 1 h 43 min
Bit rate mode : Constant
Bit rate : 448 kb/s
Channel(s) : 6 channels
Channel layout : L R C LFE Ls Rs
Sampling rate : 48.0 kHz
Frame rate : 31.250 FPS (1536 SPF)
Compression mode : Lossy
Stream size : 331 MiB (2%)
Title : AVO [Yesarev]
Language : Russian
Service kind : Complete Main
Default : No
Forced : No

Audio #5
ID : 6
Format : E-AC-3 JOC
Format/Info : Enhanced AC-3 with Joint Object Coding
Commercial name : Dolby Digital Plus with Dolby Atmos
Codec ID : A_EAC3
Duration : 1 h 43 min
Bit rate mode : Constant
Bit rate : 768 kb/s
Channel(s) : 6 channels
Channel layout : L R C LFE Ls Rs
Sampling rate : 48.0 kHz
Frame rate : 31.250 FPS (1536 SPF)
Compression mode : Lossy
Stream size : 568 MiB (3%)
Title : Original
Language : English
Service kind : Complete Main
Default : No
Forced : No
Complexity index : 16
Number of dynamic objects : 15
Bed channel count : 1 channel
Bed channel configuration : LFE

Text #1
ID : 7
Format : UTF-8
Codec ID : S_TEXT/UTF8
Codec ID/Info : UTF-8 Plain Text
Duration : 22 min 47 s
Bit rate : 1 b/s
Frame rate : 0.004 FPS
Count of elements : 5
Stream size : 204 Bytes (0%)
Title : Forced
Language : Russian
Default : Yes
Forced : Yes

Text #2
ID : 8
Format : UTF-8
Codec ID : S_TEXT/UTF8
Codec ID/Info : UTF-8 Plain Text
Duration : 1 h 42 min
Bit rate : 54 b/s
Frame rate : 0.147 FPS
Count of elements : 905
Stream size : 41.0 KiB (0%)
Title : Full v.1
Language : Russian
Default : No
Forced : No

Text #3
ID : 9
Format : UTF-8
Codec ID : S_TEXT/UTF8
Codec ID/Info : UTF-8 Plain Text
Duration : 1 h 37 min
Bit rate : 59 b/s
Frame rate : 0.173 FPS
Count of elements : 1010
Stream size : 42.4 KiB (0%)
Title : Full v.2 [FOCS]
Language : Russian
Default : No
Forced : No

Text #4
ID : 10
Format : UTF-8
Codec ID : S_TEXT/UTF8
Codec ID/Info : UTF-8 Plain Text
Duration : 1 h 42 min
Bit rate : 38 b/s
Frame rate : 0.188 FPS
Count of elements : 1157
Stream size : 28.9 KiB (0%)
Title : Full
Language : English
Default : No
Forced : No

Text #5
ID : 11
Format : UTF-8
Codec ID : S_TEXT/UTF8
Codec ID/Info : UTF-8 Plain Text
Duration : 1 h 43 min
Bit rate : 46 b/s
Frame rate : 0.232 FPS
Count of elements : 1439
Stream size : 35.5 KiB (0%)
Title : SDH
Language : English
Default : No
Forced : No

Menu
00:00:00.000 : Chapter 01
00:06:55.581 : Chapter 02
00:14:23.654 : Chapter 03
00:20:29.061 : Chapter 04
00:27:01.704 : Chapter 05
00:35:11.944 : Chapter 06
00:41:30.615 : Chapter 07
00:48:08.971 : Chapter 08
00:55:39.630 : Chapter 09
01:02:40.635 : Chapter 10
01:08:46.250 : Chapter 11
01:16:39.557 : Chapter 12
01:23:22.668 : Chapter 13
01:28:07.995 : Chapter 14
01:32:34.178 : Chapter 15
01:37:14.667 : Chapter 16




Скачать Чёрный телефон через торрент https://i120.fastpic.org/big/2022/0717/0b/70c407184bf26414c59da68880a2190b.jpg Скачать, смотреть онлайн Чёрный телефон бесплантно в хорошем качестве Описание: Застенчивый, но умный 13-летний Финни Шоу похищен маньяком-убийцей и заперт в звуконепроницаемом подвале, откуда никто не услышит ... 9 10 9
Торрент: Зарегистрирован [2022-09-09 12:36] · скачан: 65 раз
Статус: √ проверено
Размер: 19.08 GB
Как cкачать? Как скачать Чёрный телефон через торрент | UTorrent

% Раздел Тема Автор DL S | L
Фильмы 2021 [DVDrip, WEB-DLRip, HDrip] (DUB, MVO) [ 1.46 GB ] Чёрный телефон / The Black Phone | Пифагор | BDRip bober100 Скачать
5 | 0
Фильмы [HD 720p, 1080p] (Хороший звук DUB, MVO) [ 11.34 GB ] Чёрный телефон / The Black Phone | Jaskier | 1080p bober100 Скачать
5 | 0
Фильмы [HD 720p, 1080p] (Хороший звук DUB, MVO) [ 6.12 GB ] Чёрный телефон / The Black Phone | Jaskier | 720p bober100 Скачать
4 | 0
Фильмы 2021 [DVDrip, WEB-DLRip, HDrip] (DUB, MVO) [ 3.11 GB ] Чёрный телефон / The Black Phone | Jaskier | BDRip-AVC Lithuania Скачать
5 | 0
Фильмы 2021 [DVDrip, WEB-DLRip, HDrip] (DUB, MVO) [ 1.77 GB ] Чёрный телефон / The Black Phone | Пифагор | BDRip-AVC bober100 Скачать
5 | 0
Фильмы 2021 [DVDrip, WEB-DLRip, HDrip] (DUB, MVO) [ 749 MB ] Чёрный телефон / The Black Phone | Jaskier | BDRip bober100 Скачать
1 | 0
Фильмы (Blu-ray, BD-Remux, HDDVD) [ 28.63 GB ] Чёрный телефон / The Black Phone | Jaskier | BD Remux 1080p bober100 Скачать
1 | 0



Последний раз редактировалось: bober100 (2022-09-09 12:37), всего редактировалось 2 раз(а)

28-11-2019 20:33  


Отключить вcю реклaмy на сайте, в т.ч. и в плеере онлайн просмотра!

05-08-2022 05:56 Чёрный телефон Скачать торрент  

офигенский



    Дорогой пользователь! Огромная просьба, поблагодарите релизера, оцените раздачу и оставьте свои комментарий, если Вы скачали Чёрный телефон через торрент бесплатно!!
    Комментировать посты могут только пользователи прошедшие не сложную регистрацию
    Показать сообщения:    


    Чёрный телефон через торрент
    Скачать бесплатно Чёрный телефон
    Чёрный телефон скачать торрент
    Чёрный телефон смотреть онлайн
    Cкачать фильм Чёрный телефон бесплатно
    Чёрный телефон скачать торрент в хорошем качестве
    Чёрный телефон смотреть онлайн бесплатно в хорошем качестве
    Вы не можете начинать темы
    Вы не можете отвечать на сообщения
    Вы не можете редактировать свои сообщения
    Вы не можете удалять свои сообщения
    Вы не можете голосовать в опросах
    Вы не можете прикреплять файлы к сообщениям
    Вы можете скачивать файлы
    Чёрный телефон / The Black Phone [2021, Ужасы, триллер, UHD WEB-DL-HEVC 2160p] Дубляж [Пифагор] +2xMVO [Jaskier, TVShows] +AVO [Д. Есарев] смотреть онлайн, скачать торрент picoco.icu