Всегда рабочее зеркало без VPN и Proxy просто перед .vidak.icu напиши любое слово или цифру, Пример http://m9k2.vidak.icu

Лицензия

MVO

1 сезон

1

1 сезон

iTunes

1 сезон

13

1 сезон

Deluxe

pack

Рекомендуем

Repack

30

ВАЖНО

RePack

MK11

RePack

jed

RePack

fifa19

RePack

RDR2

RePack

NEED FOR SPEED™ PAYBACK

Кинопоиск HD

6 сезон

 Острые козырьки 6 сезон

Все сериалы

все сериалы на PB.wtf

RePack

FAR CRY 5
  
Magnet ссылка

Вор / Thief (Майкл Манн) [1981 г., Боевик, триллер, драма, криминал, BDRip 720p / 60 FPS, Профессиональный (многоголосый)] от R.G. HD-Films pb.wtf

Вор через торрент pb.wtf

Раздают: 5 [ 0 KB/s ]
Размер: 5.57 GB | Добавлен: 16 д. назад | Торрент скачан:63 раза
Смотреть онлайн Вор | Скачать    Ребята, помогите собрать деньги на оплату серверов!!!

01-08-2022 10:46 Вор Скачать торрент  

Вор / Thief
Год выпуска: 1981
Страна: США
Жанр: Боевик, триллер, драма, криминал
Продолжительность: 02:04:34
Перевод: Профессиональный (многоголосый закадровый)
Субтитры: русские, английские

Режиссер: Майкл Манн

Бюджет: $5 500 000
Премьера в мире: 27 марта 1981

rating

В ролях: Джеймс Каан, Джеймс Белуши, Тьюсдей Уэлд, Уилли Нельсон, Роберт Проски, Том Синьорелли, Дэннис Фарина, Джон Сантуччи, Гэвин МакФадьен, Чак Адамсон, Уолтер Скотт, Лора Стейли, Хэл Фрэнк, Дел Клоуз, Джон Капелос, Карен Берковичи, Майк Дженовезе, Уильям Л. Петерсен, Натан Дэвис, Томас О. Эрхарт мл., Мардж Котлиски, Дж. Джей Саундерс, Патти Росс, Рон Л. Кокс

Описание: Фрэнк - эксперт по вскрытию сейфов, профессионал высшей пробы, и работы для него всегда хватает. Но он уже побывал за решеткой, и возвращаться туда не собирается. Нужен всего один, но верный взлом. И тут дразнящая мечта о будущем заставляет его потерять осторожность: поддавшись искушению, матерый волк-одиночка соглашается поработать на крупного мафиози! Капкан захлопнулся, разовых контрактов с мафией не бывает. Лучший друг Фрэнка убит, любимая женщина - в руках бандитов, а сам он становится их собственностью…


Качество: BDRip 720p / 60 FPS
Формат: MKV
Видео кодек: H.264
Аудио кодек: AC3
Видео: x264, 1280 x 688 ( 1,85:1 ), 6209 kbps, 60,000 fps, ( 0.118 bpp)
Аудио#1: Русский, AC-3, 48.0 KHz, 2 ch, 192 Kbps MVO
Релиз от: Автор рипа: slaventi-69
x264 [info]: using cpu capabilities: MMX2 SSE2Fast SSSE3 SSE4.2 AVX AVX2 FMA3 LZCNT BMI1 BMI2
x264 [info]: profile High, level 4.1

x264 [info]: frame I:1230 Avg QP:17.79 size: 92069
x264 [info]: frame P:109049 Avg QP:18.59 size: 27926
x264 [info]: frame B:338159 Avg QP:20.63 size: 7814
x264 [info]: consecutive B-frames: 1.9% 4.2% 13.3% 11.3% 53.2% 16.2%


Общее
Уникальный идентификатор : 223819257168080191912819593135785760579 (0xA862055D0C503411ABB02895947BD743)
Полное имя : G:\60 FPS\Thief.(1981).BDRip.720p.(60 Fps).mkv
Формат : Matroska
Версия формата : Version 4
Размер файла : 5,57 Гбайт
Продолжительность : 2 ч. 4 м.
Общий поток : 6405 Кбит/сек
Название фильма : Вор / Thief (1981) BDRip 720p (60 Fps)
Дата кодирования : UTC 2022-08-01 09:47:16
Программа кодирования : mkvmerge v69.0.0 ('Day And Age') 64-bit
Библиотека кодирования : libebml v1.4.2 + libmatroska v1.6.4

Видео
Идентификатор : 1
Формат : AVC
Формат/Информация : Advanced Video Codec
Профиль формата : [email protected]
Настройки формата : CABAC / 9 Ref Frames
Параметр CABAC формата : Да
Параметр RefFrames формата : 9 кадров
Идентификатор кодека : V_MPEG4/ISO/AVC
Продолжительность : 2 ч. 4 м.
Битрейт : 6209 Кбит/сек
Ширина : 1280 пикселей
Высота : 688 пикселей
Соотношение сторон : 1,85:1
Режим частоты кадров : Постоянный
Частота кадров : 60,000 кадров/сек
Цветовое пространство : YUV
Субдискретизация насыщенности : 4:2:0
Битовая глубина : 8 бит
Тип развёртки : Прогрессивная
Бит/(Пиксели*Кадры) : 0.118
Размер потока : 5,40 Гбайт (97%)
Заголовок : slaventi-69 ( R.G. HD-Films | 60 fps )
Библиотека кодирования : x264 core 130 r2273 b3065e6
Настройки программы : cabac=1 / ref=9 / deblock=1:-3:-3 / analyse=0x3:0x133 / me=umh / subme=9 / psy=1 / psy_rd=1.00:0.00 / mixed_ref=1 / me_range=32 / chroma_me=1 / trellis=2 / 8x8dct=1 / cqm=0 / deadzone=21,11 / fast_pskip=0 / chroma_qp_offset=-2 / threads=8 / lookahead_threads=4 / sliced_threads=0 / nr=0 / decimate=1 / interlaced=0 / bluray_compat=0 / constrained_intra=0 / bframes=5 / b_pyramid=2 / b_adapt=2 / b_bias=0 / direct=2 / weightb=1 / open_gop=0 / weightp=2 / keyint=600 / keyint_min=23 / scenecut=40 / intra_refresh=0 / rc=crf / mbtree=0 / crf=18.3 / qcomp=0.60 / qpmin=0 / qpmax=69 / qpstep=4 / ip_ratio=1.40 / pb_ratio=1.30 / aq=1:1.00
Язык : English
Default : Да
Forced : Нет

Аудио
Идентификатор : 2
Формат : AC-3
Формат/Информация : Audio Coding 3
Коммерческое название : Dolby Digital
Идентификатор кодека : A_AC3
Продолжительность : 2 ч. 4 м.
Вид битрейта : Постоянный
Битрейт : 192 Кбит/сек
Каналы : 2 канала
Channel layout : L R
Частота : 48,0 КГц
Частота кадров : 31,250 кадров/сек (1536 SPF)
Битовая глубина : 16 бит
Метод сжатия : С потерями
Размер потока : 171 Мбайт (3%)
Заголовок : MVO
Язык : Russian
ServiceKind/String : Complete Main
Default : Да
Forced : Нет

Текст #1
Идентификатор : 3
Формат : UTF-8
Идентификатор кодека : S_TEXT/UTF8
Идентификатор кодека/Информация : UTF-8 Plain Text
Продолжительность : 1 ч. 53 м.
Битрейт : 76 бит/сек
ElementCount : 737
Размер потока : 63,8 Кбайт (0%)
Язык : Russian
Default : Нет
Forced : Нет

Текст #2
Идентификатор : 4
Формат : UTF-8
Идентификатор кодека : S_TEXT/UTF8
Идентификатор кодека/Информация : UTF-8 Plain Text
Продолжительность : 2 ч. 3 м.
Битрейт : 45 бит/сек
ElementCount : 1233
Размер потока : 40,8 Кбайт (0%)
Язык : English
Default : Нет
Forced : Нет

Меню
00:00:00.000 : :Chapter 01
00:05:00.000 : :Chapter 02
00:10:00.000 : :Chapter 03
00:15:00.000 : :Chapter 04
00:20:00.000 : :Chapter 05
00:25:00.000 : :Chapter 06
00:30:00.000 : :Chapter 07
00:35:00.000 : :Chapter 08
00:40:00.000 : :Chapter 09
00:45:00.000 : :Chapter 10
00:50:00.000 : :Chapter 11
00:55:00.000 : :Chapter 12
01:00:00.000 : :Chapter 13
01:05:00.000 : :Chapter 14
01:10:00.000 : :Chapter 15
01:15:00.000 : :Chapter 16
01:20:00.000 : :Chapter 17
01:25:00.000 : :Chapter 18
01:30:00.000 : :Chapter 19
01:35:00.000 : :Chapter 20
01:40:00.000 : :Chapter 21
01:45:00.000 : :Chapter 22
01:50:00.000 : :Chapter 23
01:55:00.000 : :Chapter 24
02:00:00.000 : :Chapter 25

Просьба к переливающим на другие сайты, в оформлении указывайте пожалуйста авторство группы R.G. HD-Films pb.wtf



Скачать Вор через торрент http://i103.fastpic.ru/big/2018/0213/63/86593be0985f824999a17c194c557f63.png Скачать, смотреть онлайн Вор бесплантно в хорошем качестве Описание: Фрэнк - эксперт по вскрытию сейфов, профессионал высшей пробы, и работы для него всегда хватает. Но он уже побывал за решеткой, и ... 7.8 10 4
Торрент: Зарегистрирован [2022-08-01 10:46] · скачан: 63 раз
Статус: √ проверено
Размер: 5.57 GB
Как cкачать? Как скачать Вор через торрент | UTorrent

28-11-2019 20:33  

Отключить вcю реклaмy на сайте

    Дорогой пользователь! Огромная просьба, поблагодарите релизера, оцените раздачу и оставьте свои комментарий, если Вы скачали Вор через торрент бесплатно!
    Комментировать посты могут только пользователи прошедшие не сложную регистрацию
    Показать сообщения:    

    Вор через торрент
    Скачать бесплатно Вор
    Вор скачать торрент
    Вор смотреть онлайн
    Cкачать фильм Вор бесплатно
    Вор скачать торрент в хорошем качестве
    Вор смотреть онлайн бесплатно в хорошем качестве


    Вы не можете начинать темы
    Вы не можете отвечать на сообщения
    Вы не можете редактировать свои сообщения
    Вы не можете удалять свои сообщения
    Вы не можете голосовать в опросах
    Вы не можете прикреплять файлы к сообщениям
    Вы можете скачивать файлы