Всегда рабочее зеркало без VPN и Proxy просто перед .vidak.icu напиши любое слово или цифру, Пример http://thhs.vidak.icu

Лицензия

MVO

1 сезон

1

1 сезон

iTunes

1 сезон

13

1 сезон

Deluxe

pack

Рекомендуем

Repack

30

ВАЖНО

RePack

MK11

RePack

jed

RePack

fifa19

RePack

RDR2

RePack

NEED FOR SPEED™ PAYBACK

Кинопоиск HD

6 сезон

 Острые козырьки 6 сезон

Все сериалы

все сериалы на PB.wtf

RePack

FAR CRY 5
  
Magnet ссылка

Мир Юрского периода: Господство / Jurassic World Dominion (Колин Треворроу) [2022, Фантастика, боевик, триллер, приключения, HDRip-AVC] DUB [Jaskier] +3xMVO pb.wtf

Мир Юрского периода: Господство через торрент pb.wtf

Раздают: 9 [ 232 KB/s ]
Размер: 4.86 GB | Добавлен: 16 д. назад | Торрент скачан:165 раз
Смотреть онлайн Мир Юрского периода: Господство | Скачать    Ребята, помогите собрать деньги на оплату серверов!!!

01-08-2022 13:30 Мир Юрского периода: Господство Скачать торрент  

Мир Юрского периода: Господство
Jurassic World Dominion

Год выпуска: 2022
Страна: США, Китай, Мальта
Выпущено: Amblin Entertainment, Latina Pictures, Perfect World (Beijing) Pictures Co., Universal Pictures
Жанр: Фантастика, боевик, триллер, приключения
Продолжительность: 02:26:57
Перевод(ы):
#1: Дублированный | Jaskier
#2: Профессиональный многоголосый | Lostfilm
#3: Профессиональный многоголосый | Jaskier
#4: Профессиональный многоголосый | NewComers
Субтитры: Русские (Forced, full), английские

Режиссер: Колин Треворроу

rating

В ролях: Крис Прэтт, Брайс Даллас Ховард, Лора Дерн, Сэм Нилл, Джефф Голдблюм, ДеВанда Уайз, Мамуду Ати, Изабелла Сермон, Кэмпбелл Скотт, Б. Д. Вонг

Описание: После уничтожения острова Нублар динозавры вырвались на свободу и заполнили планету. Людям удается поддерживать хрупкое равновесие, определяющее мирное сосуществование на Земле. Но как долго человек сможет сохранять свое господство, живя по соседству с самыми устрашающими существами в истории?

Качество: HDRip-AVC
Формат: MKV

Видео: MPEG-4 AVC, 1024x512 at 23.976 fps, [email protected], ~2493 kbps
Аудио #01: 48 kHz, AC3, 5.1, 448 Kbps | Дублированный | Jaskier | RUS |
Аудио #02: 48 kHz, AC3, 5.1, 448 Kbps | Профессиональный многоголосый | Lostfilm | RUS |
Аудио #03: 48 kHz, AC3, 5.1, 448 Kbps | Профессиональный многоголосый | Jaskier | RUS |
Аудио #04: 48 kHz, AC3, 5.1, 448 Kbps | Профессиональный многоголосый | NewComers | RUS |
Аудио #05: 48 kHz, AC3, 5.1, 448 Kbps | Оригинал | ENG |
скриншот  скриншот  скриншот  скриншот  

x264 [info]: frame I:1949 Avg QP:16.33 size: 65739
x264 [info]: frame P:52628 Avg QP:18.18 size: 24146
x264 [info]: frame B:156827 Avg QP:19.83 size: 8599

General
Unique ID : 173576035873881134009677084440350965344 (0×8295874C8BDB4D82DDB5476A71543E60)
Complete name : D:Jurassic.World.Dominion.2022.HDRip.x264.seleZen.mkv
Format : Matroska
Format version : Version 4
File size : 4.86 GiB
Duration : 2 h 26 min
Overall bit rate : 4 736 kb/s
Movie name : Jurassic.World.Dominion.2022.HDRip.x264.seleZen
Encoded date : UTC 01.08.2022 12:54:48
Writing application : mkvmerge v63.0.0 ('Everything') 64-bit
Writing library : libebml v1.4.2 + libmatroska v1.6.4
Cover : Yes
Attachments : cover.jpg / small_cover.jpg

Video
ID : 1
Format : AVC
Format/Info : Advanced Video Codec
Format profile : [email protected]
Format settings : CABAC / 12 Ref Frames
Format settings, CABAC : Yes
Format settings, Reference : 12 frames
Codec ID : V_MPEG4/ISO/AVC
Duration : 2 h 26 min
Bit rate : 2 493 kb/s
Width : 1 024 pixels
Height : 512 pixels
Display aspect ratio : 2.000
Frame rate mode : Constant
Frame rate : 23.976 (24000/1001) FPS
Color space : YUV
Chroma subsampling : 4:2:0
Bit depth : 8 bits
Scan type : Progressive
Bits/(Pixel*Frame) : 0.198
Stream size : 2.56 GiB (53%)
Title : -=DoMiNo=-
Writing library : x264 core 164 by -=DoMiNo=-
Encoding settings : cabac=1 / ref=12 / deblock=1:-3:-3 / analyse=0×3:0×133 / me=umh / subme=11 / psy=1 / psy_rd=1.02:0.03 / mixed_ref=1 / me_range=32 / chroma_me=1 / trellis=2 / 8×8dct=1 / cqm=0 / deadzone=21,11 / fast_pskip=0 / chroma_qp_offset=-3 / threads=16 / lookahead_threads=4 / sliced_threads=0 / nr=0 / decimate=0 / interlaced=0 / bluray_compat=0 / constrained_intra=0 / bframes=10 / b_pyramid=2 / b_adapt=2 / b_bias=0 / direct=1 / weightb=1 / open_gop=0 / weightp=2 / keyint=250 / keyint_min=23 / scenecut=40 / intra_refresh=0 / rc_lookahead=60 / rc=crf / mbtree=0 / crf=18.7 / qcomp=0.65 / qpmin=0 / qpmax=69 / qpstep=4 / vbv_maxrate=50000 / vbv_bufsize=62500 / crf_max=0.0 / nal_hrd=none / filler=0 / ip_ratio=1.30 / pb_ratio=1.20 / aq=3:0.80
Language : English
Default : Yes
Forced : No

Audio #1
ID : 2
Format : AC-3
Format/Info : Audio Coding 3
Commercial name : Dolby Digital
Codec ID : A_AC3
Duration : 2 h 26 min
Bit rate mode : Constant
Bit rate : 448 kb/s
Channel (s) : 6 channels
Channel layout : L R C LFE Ls Rs
Sampling rate : 48.0 kHz
Frame rate : 31.250 FPS (1536 SPF)
Compression mode : Lossy
Stream size : 471 MiB (9%)
Title : Dub [Jaskier]
Language : Russian
Service kind : Complete Main
Default : Yes
Forced : Yes

Audio #2
ID : 3
Format : AC-3
Format/Info : Audio Coding 3
Commercial name : Dolby Digital
Codec ID : A_AC3
Duration : 2 h 26 min
Bit rate mode : Constant
Bit rate : 448 kb/s
Channel (s) : 6 channels
Channel layout : L R C LFE Ls Rs
Sampling rate : 48.0 kHz
Frame rate : 31.250 FPS (1536 SPF)
Compression mode : Lossy
Stream size : 471 MiB (9%)
Title : MVO [Lostfilm]
Language : Russian
Service kind : Complete Main
Default : No
Forced : No

Audio #3
ID : 4
Format : AC-3
Format/Info : Audio Coding 3
Commercial name : Dolby Digital
Codec ID : A_AC3
Duration : 2 h 26 min
Bit rate mode : Constant
Bit rate : 448 kb/s
Channel (s) : 6 channels
Channel layout : L R C LFE Ls Rs
Sampling rate : 48.0 kHz
Frame rate : 31.250 FPS (1536 SPF)
Compression mode : Lossy
Stream size : 471 MiB (9%)
Title : MVO [Jaskier]
Language : Russian
Service kind : Complete Main
Default : No
Forced : No

Audio #4
ID : 5
Format : AC-3
Format/Info : Audio Coding 3
Commercial name : Dolby Digital
Codec ID : A_AC3
Duration : 2 h 26 min
Bit rate mode : Constant
Bit rate : 448 kb/s
Channel (s) : 6 channels
Channel layout : L R C LFE Ls Rs
Sampling rate : 48.0 kHz
Frame rate : 31.250 FPS (1536 SPF)
Compression mode : Lossy
Stream size : 471 MiB (9%)
Title : MVO [NewComers]
Language : Russian
Service kind : Complete Main
Default : No
Forced : No

Audio #5
ID : 6
Format : AC-3
Format/Info : Audio Coding 3
Commercial name : Dolby Digital
Codec ID : A_AC3
Duration : 2 h 26 min
Bit rate mode : Constant
Bit rate : 448 kb/s
Channel (s) : 6 channels
Channel layout : L R C LFE Ls Rs
Sampling rate : 48.0 kHz
Frame rate : 31.250 FPS (1536 SPF)
Compression mode : Lossy
Stream size : 471 MiB (9%)
Title : Original
Language : English
Service kind : Complete Main
Default : No
Forced : No

Text #1
ID : 7
Format : UTF-8
Codec ID : S_TEXT/UTF8
Codec ID/Info : UTF-8 Plain Text
Duration : 1 h 41 min
Bit rate : 1 b/s
Count of elements : 15
Stream size : 763 Bytes (0%)
Title : Forced
Language : Russian
Default : Yes
Forced : No

Text #2
ID : 8
Format : UTF-8
Codec ID : S_TEXT/UTF8
Codec ID/Info : UTF-8 Plain Text
Duration : 2 h 14 min
Bit rate : 70 b/s
Count of elements : 1424
Stream size : 69.4 KiB (0%)
Title : Full [NewComers]
Language : Russian
Default : No
Forced : No

Text #3
ID : 9
Format : UTF-8
Codec ID : S_TEXT/UTF8
Codec ID/Info : UTF-8 Plain Text
Duration : 2 h 26 min
Bit rate : 45 b/s
Count of elements : 1820
Stream size : 48.4 KiB (0%)
Title : Full
Language : English
Default : No
Forced : No

Text #4
ID : 10
Format : UTF-8
Codec ID : S_TEXT/UTF8
Codec ID/Info : UTF-8 Plain Text
Duration : 2 h 26 min
Bit rate : 55 b/s
Count of elements : 2393
Stream size : 60.2 KiB (0%)
Title : SDH
Language : English
Default : No
Forced : No

Menu
00:00:00.000 : en:Chapter 01
00:07:57.560 : en:Chapter 02
00:11:36.362 : en:Chapter 03
00:25:30.070 : en:Chapter 04
00:35:48.271 : en:Chapter 05
00:42:56.282 : en:Chapter 06
00:47:53.788 : en:Chapter 07
00:54:45.407 : en:Chapter 08
01:04:51.054 : en:Chapter 09
01:14:49.026 : en:Chapter 10
01:25:28.373 : en:Chapter 11
01:30:44.355 : en:Chapter 12
01:38:17.975 : en:Chapter 13
01:44:28.345 : en:Chapter 14
01:48:09.483 : en:Chapter 15
02:04:34.425 : en:Chapter 16
02:08:56.896 : en:Chapter 17
02:14:12.961 : en:Chapter 18
02:23:16.921 : en:Chapter 19
02:29:59.032 : en:Chapter 20

pb.wtf



Скачать Мир Юрского периода: Господство через торрент https://i120.fastpic.org/big/2022/0801/c7/00fcf5da40d798645f7e6cd9acca7ac7.jpg Скачать, смотреть онлайн Мир Юрского периода: Господство бесплантно в хорошем качестве Описание: После уничтожения острова Нублар динозавры вырвались на свободу и заполнили планету. Людям удается поддерживать хрупкое ... 10 10 10
Info! Золотая раздача, скачанное не засчитывается.
Торрент: Зарегистрирован [2022-08-01 13:30] · скачан: 165 раз
Статус: √ проверено
Размер: 4.86 GB
Как cкачать? Как скачать Мир Юрского периода: Господство через торрент | UTorrent

% Раздел Тема Автор DL S | L
Фильмы (Blu-ray, BD-Remux, HDDVD) [ 29.48 GB ] Мир Юрского периода: Господство / Jurassic World Dominion [2022 BD Remux 1080p] DUB [Jaskier] +3xMVO bober100 Скачать
7 | 0
Фильмы [HD 720p, 1080p] (Хороший звук DUB, MVO) [ 17.64 GB ] Мир Юрского периода: Господство / Jurassic World Dominion [2022 BDRip 1080p] DUB [Jaskier] +3xMVO bober100 Скачать
24 | 0
Фильмы [HD 720p, 1080p] (Хороший звук DUB, MVO) [ 7.63 GB ] Мир Юрского периода: Господство / Jurassic World Dominion [2022 BDRip 720p] DUB [Jaskier] +3xMVO bober100 Скачать
11 | 0

28-11-2019 20:33  

Отключить вcю реклaмy на сайте

    Дорогой пользователь! Огромная просьба, поблагодарите релизера, оцените раздачу и оставьте свои комментарий, если Вы скачали Мир Юрского периода: Господство через торрент бесплатно!
    Комментировать посты могут только пользователи прошедшие не сложную регистрацию
    Показать сообщения:    

    Мир Юрского периода: Господство через торрент
    Скачать бесплатно Мир Юрского периода: Господство
    Мир Юрского периода: Господство скачать торрент
    Мир Юрского периода: Господство смотреть онлайн
    Cкачать фильм Мир Юрского периода: Господство бесплатно
    Мир Юрского периода: Господство скачать торрент в хорошем качестве
    Мир Юрского периода: Господство смотреть онлайн бесплатно в хорошем качестве


    Вы можете начинать темы
    Вы можете отвечать на сообщения
    Вы не можете редактировать свои сообщения
    Вы не можете удалять свои сообщения
    Вы не можете голосовать в опросах
    Вы не можете прикреплять файлы к сообщениям
    Вы можете скачивать файлы