Всегда рабочее зеркало без VPN и Proxy просто перед .vidak.icu напиши любое слово или цифру, Пример http://5oo9.vidak.icu

Лицензия

MVO

1 сезон

1

1 сезон

iTunes

1 сезон

13

1 сезон

Deluxe

pack

Рекомендуем

Repack

30

ВАЖНО

RePack

MK11

RePack

jed

RePack

fifa19

RePack

RDR2

RePack

NEED FOR SPEED™ PAYBACK

Кинопоиск HD

6 сезон

 Острые козырьки 6 сезон

Все сериалы

все сериалы на PB.wtf

RePack

FAR CRY 5
  
Magnet ссылка

Главная роль / Competencia oficial / Official Competition (Мариано Кон, Гастон Дюпра) [2021, Драма, комедия, WEB-DL 1080p] DUB [СиПиАй Филмз / CPI Films] pb.wtf

Главная роль через торрент pb.wtf

Раздают: 18 [ 61 KB/s ]
Размер: 4.85 GB | Добавлен: 15 д. назад | Торрент скачан:187 раз
Смотреть онлайн Главная роль | Скачать    Ребята, помогите собрать деньги на оплату серверов!!!

01-08-2022 18:01 Главная роль Скачать торрент  

Главная роль
Competencia oficial / Official Competition

Год выпуска: 2021
Страна: Испания, Аргентина
Выпущено: The MediaPro Studio
Жанр: Драма, комедия
Продолжительность: 01:54:36
Перевод: Дублированный | СиПиАй Филмз / CPI Films
Субтитры: Aнглийские

Режиссер: Мариано Кон, Гастон Дюпра

rating

В ролях: Пенелопа Крус, Антонио Бандерас, Оскар Мартинес, Хосе Луис Гомес, Маноло Соло, Нагоре Арамбуру, Ирена Эсколар, Пилар Кастро, Кольдо Олабарри, Хуан Грандинетти

Описание: Тщеславный миллиардер задался целью вписать свое имя в историю, взявшись за создание идеального фильма. Сценарий — книга Нобелевского лауреата, режиссер — модная и эксцентричная, в главных ролях — разбитной секс-символ кумир миллионов и высоколобый драматический актер. Ждать шедевра или ждать беды?

Качество: WEB-DL 1080p
Формат: MKV

Видео: MPEG-4 AVC, ~ 5354 Кb/s, 1920x1080
Аудио#1: Russian: AC3, 448 Kb/s (6 ch)
Аудио#2: Spanish: Е-AC3, 256 Kb/s (6 ch)
скриншот  скриншот  скриншот  скриншот  

Complete name: Glavnaya.rol.2021.WEB-DL.1080p.ELEKTRI4KA.UNIONGANG.mkv
Format: Matroska
Format version: Version 4
File size: 4.85 GiB
Duration: 1 h 54 min
Overall bit rate mode: Variable
Overall bit rate: 6 060 kb/s
Movie name: Glavnaya.rol.2021.WEB-DL.1080p.ELEKTRI4KA.UNIONGANG.
Encoded date: UTC 2022-08-01 17:01:39
Writing application: mkvmerge v8.3.0 ('Over the Horizon') 32bit
Writing library: libebml v1.3.1 + libmatroska v1.4.2

Video
ID: 1
Format: AVC
Format/Info: Advanced Video Codec
Format profile: [email protected]
Format settings: CABAC / 4 Ref Frames
Format settings, CABAC: Yes
Format settings, Reference frames: 4 frames
Codec ID: V_MPEG4/ISO/AVC
Duration: 1 h 54 min
Bit rate mode: Variable
Bit rate: 5 354 kb/s
Maximum bit rate: 12.7 Mb/s
Width: 1 920 pixels
Height: 1 080 pixels
Display aspect ratio: 16:9
Frame rate mode: Constant
Frame rate: 23.976 (24000/1001) FPS
Color space: YUV
Chroma subsampling: 4:2:0
Bit depth: 8 bits
Scan type: Progressive
Bits/(Pixel*Frame): 0.108
Stream size: 4.29 GiB (88%)
Default: Yes
Forced: No
Color range: Limited
Color primaries: BT.709
Transfer characteristics: BT.709
Matrix coefficients: BT.709

Audio #1
ID: 2
Format: AC-3
Format/Info: Audio Coding 3
Commercial name: Dolby Digital
Codec ID: A_AC3
Duration: 1 h 54 min
Bit rate mode: Constant
Bit rate: 448 kb/s
Channel(s): 6 channels
Channel layout: L R C LFE Ls Rs
Sampling rate: 48.0 kHz
Frame rate: 31.250 FPS (1536 SPF)
Compression mode: Lossy
Stream size: 367 MiB (7%)
Title: DUB (CPI Films)
Language: Russian
Service kind: Complete Main
Default: Yes
Forced: Yes

Audio #2
ID: 3
Format: E-AC-3
Format/Info: Enhanced AC-3
Commercial name: Dolby Digital Plus
Codec ID: A_EAC3
Duration: 1 h 54 min
Bit rate mode: Constant
Bit rate: 256 kb/s
Channel(s): 6 channels
Channel layout: L R C LFE Ls Rs
Sampling rate: 48.0 kHz
Frame rate: 31.250 FPS (1536 SPF)
Compression mode: Lossy
Stream size: 210 MiB (4%)
Title: Original
Language: Spanish
Service kind: Complete Main
Default: No
Forced: No

Text #1
ID: 4
Format: UTF-8
Codec ID: S_TEXT/UTF8
Codec ID/Info: UTF-8 Plain Text
Duration: 1 h 47 min
Bit rate: 58 b/s
Count of elements: 1556
Stream size: 45.9 KiB (0%)
Language: English
Default: No
Forced: No

Text #2
ID: 5
Format: UTF-8
Codec ID: S_TEXT/UTF8
Codec ID/Info: UTF-8 Plain Text
Duration: 1 h 47 min
Bit rate: 62 b/s
Count of elements: 1753
Stream size: 49.0 KiB (0%)
Title: Brazilian
Language: Portuguese
Default: No
Forced: No

pb.wtf



Скачать Главная роль через торрент https://i120.fastpic.org/big/2022/0614/26/5e8201dcb88f8b2d38208e5747577f26.jpg Скачать, смотреть онлайн Главная роль бесплантно в хорошем качестве Описание: Тщеславный миллиардер задался целью вписать свое имя в историю, взявшись за создание идеального фильма. Сценарий — книга ... 10 10 5
Торрент: Зарегистрирован [2022-08-01 18:01] · скачан: 187 раз
Статус: √ проверено
Размер: 4.85 GB
Как cкачать? Как скачать Главная роль через торрент | UTorrent

% Раздел Тема Автор DL S | L
Фильмы 2021 [DVDrip, WEB-DLRip, HDrip] (DUB, MVO) [ 1.46 GB ] Главная роль / Competencia oficial / Official Competition [2021 WEB-DLRip] DUB [СиПиАй Филмз / CPI Films] bober100 Скачать
14 | 0

28-11-2019 20:33  

Отключить вcю реклaмy на сайте

02-08-2022 22:38 Главная роль Скачать торрент  

Автору спасибо!
Фильм никакой, может быть европейцам зайдет.pb.wtf



03-08-2022 16:51 Главная роль Скачать торрент  

Треш. Зря потраченное время.pb.wtf



    Дорогой пользователь! Огромная просьба, поблагодарите релизера, оцените раздачу и оставьте свои комментарий, если Вы скачали Главная роль через торрент бесплатно!
    Комментировать посты могут только пользователи прошедшие не сложную регистрацию
    Показать сообщения:    

    Главная роль через торрент
    Скачать бесплатно Главная роль
    Главная роль скачать торрент
    Главная роль смотреть онлайн
    Cкачать фильм Главная роль бесплатно
    Главная роль скачать торрент в хорошем качестве
    Главная роль смотреть онлайн бесплатно в хорошем качестве


    Вы не можете начинать темы
    Вы не можете отвечать на сообщения
    Вы не можете редактировать свои сообщения
    Вы не можете удалять свои сообщения
    Вы не можете голосовать в опросах
    Вы не можете прикреплять файлы к сообщениям
    Вы можете скачивать файлы