Доктор Стрэндж

Лицензия

Добыча

MVO

Дом дракона

1 сезон

Тор

Лицензия

Мэверик

Лицензия

Там, где раки поют

MVO

Властелин колец

1 сезон

Ultimate

pack

Рекомендуем

30

Repack

ВАЖНО

ВАЖНО

Ghostwire

RePack

jed

RePack

nioh2

RePack

RDR2

RePack

NEED FOR SPEED™ PAYBACK

RePack

скачать торрент

Кинопоиск HD

Острые козырьки 6 сезон

6 сезон

FAR CRY 6

RePack

скачать торрент

Лицензия

скачать торрент

MVO

1

1 сезон

скачать торрент

1 сезон

скачать торрент

Лицензия

  

Холодная река / Такая холодная река / So Cold the River (Пол Шолберг) [2022, Ужасы, триллер, драма, BD Remux 1080p] DUB [Akimbo Production / iTunes]

Холодная река через торрент pb.wtf

Размер: 12.67 GB | Добавлен: 1 мес. 29 д. назад | Торрент скачан:30 раз
Смотреть онлайн Холодная река | Скачать   

01-08-2022 18:50 Холодная река Скачать торрент  

Холодная река / Такая холодная река
So Cold the River

Год выпуска: 2022
Страна: США
Студия: 1804 Productions, Pigasus Pictures
Жанр: Ужасы, триллер, драма
Продолжительность: 01:34:41
Перевод: Профессиональный (полное дублирование) | Akimbo Production | iTunes |
Субтитры: Английские

Режиссер: Пол Шолберг

rating

В ролях: Бетани Джои Ленц, Алисия Райнер, Эндрю Дж. Уэст, Кэти Сариф, Дианна Данаган, Майкл Роджерс, Кевин Кахун, Кингстон Верне, Аарон Роман Уэйнер, Лиа Хаттон Бисмор

Описание: Эрика Шоу получает очередной рабочий заказ — снять фильм об известном миллиардере Кэмпбелле Бредфорде. Она приезжает в город и останавливается в роскошном курортном отеле, который принадлежит Бредфорду. Но, оказавшись один на один с мрачными тайнами этого места, Эрика начинает осознавать, что в стенах местной гостиницы обитает необъяснимое зло.

Качество: BD Remux 1080p
Формат: MKV

Видео: MPEG-4 AVC, 1920x1080, 16.7 Mbit/s, 24.000 fps
Аудио #01: 48 kHz, AC3, 5.1, 384 Kbps | iTunes | RUS |
Аудио #02: 48 kHz, DTS-HD MA, 5.1, 2046 Kbps | Оригинал | ENG |
скриншот  скриншот  скриншот  скриншот  скриншот  скриншот  

General
Unique ID : 246180456048206016140397825530916728444 (0xB934A1967E9AC257036BBB20EF8F6E7C)
Complete name : D:So.Cold.the.River.2022.BDREMUX.1080p.seleZen.mkv
Format : Matroska
Format version : Version 4
File size : 12.7 GiB
Duration : 1 h 34 min
Overall bit rate mode : Variable
Overall bit rate : 19.2 Mb/s
Movie name : So Cold the River 2022 from seleZen
Encoded date : UTC 2022-08-01 18:20:57
Writing application : mkvmerge v59.0.0 ('Shining Star') 64-bit
Writing library : libebml v1.4.2 + libmatroska v1.6.4

Video
ID : 1
Format : AVC
Format/Info : Advanced Video Codec
Format profile : [email protected]
Format settings : CABAC / 4 Ref Frames
Format settings, CABAC : Yes
Format settings, Reference : 4 frames
Format settings, GOP : M=4, N=12
Codec ID : V_MPEG4/ISO/AVC
Duration : 1 h 34 min
Bit rate mode : Variable
Bit rate : 16.7 Mb/s
Maximum bit rate : 30.0 Mb/s
Width : 1 920 pixels
Height : 1 080 pixels
Display aspect ratio : 16:9
Frame rate mode : Constant
Frame rate : 24.000 FPS
Standard : NTSC
Color space : YUV
Chroma subsampling : 4:2:0
Bit depth : 8 bits
Scan type : Progressive
Bits/(Pixel*Frame) : 0.336
Stream size : 11.1 GiB (87%)
Language : English
Default : Yes
Forced : No
Color range : Limited
Color primaries : BT.709
Transfer characteristics : BT.709
Matrix coefficients : BT.709

Audio #1
ID : 2
Format : AC-3
Format/Info : Audio Coding 3
Commercial name : Dolby Digital
Codec ID : A_AC3
Duration : 1 h 34 min
Bit rate mode : Constant
Bit rate : 384 kb/s
Channel(s) : 6 channels
Channel layout : L R C LFE Ls Rs
Sampling rate : 48.0 kHz
Frame rate : 31.250 FPS (1536 SPF)
Compression mode : Lossy
Stream size : 260 MiB (2%)
Title : iTunes
Language : Russian
Service kind : Complete Main
Default : Yes
Forced : Yes

Audio #2
ID : 3
Format : DTS XBR
Format/Info : Digital Theater Systems
Commercial name : DTS-HD High Resolution Audio
Codec ID : A_DTS
Duration : 1 h 34 min
Bit rate mode : Constant
Bit rate : 2 046 kb/s
Channel(s) : 6 channels
Channel layout : C L R Ls Rs LFE
Sampling rate : 48.0 kHz
Frame rate : 93.750 FPS (512 SPF)
Bit depth : 16 bits
Compression mode : Lossy
Stream size : 1.35 GiB (11%)
Title : Original
Language : English
Default : No
Forced : No

Text
ID : 4
Format : UTF-8
Codec ID : S_TEXT/UTF8
Codec ID/Info : UTF-8 Plain Text
Duration : 1 h 24 min
Bit rate : 52 b/s
Frame rate : 0.202 FPS
Count of elements : 1017
Stream size : 32.2 KiB (0%)
Title : Full
Language : English
Default : No
Forced : No

Menu
00:00:00.000 : Chapter 01
00:08:54.500 : Chapter 02
00:16:22.500 : Chapter 03
00:24:54.708 : Chapter 04
00:30:48.042 : Chapter 05
00:38:39.667 : Chapter 06
00:48:45.333 : Chapter 07
00:55:31.250 : Chapter 08
01:04:04.042 : Chapter 09
01:12:10.333 : Chapter 10
01:18:14.458 : Chapter 11
01:26:52.333 : Chapter 12




Скачать Холодная река через торрент https://i120.fastpic.org/big/2022/0801/3f/efa89eb8749252a85e9210a80d8fb03f.jpg Скачать, смотреть онлайн Холодная река бесплантно в хорошем качестве Описание: Эрика Шоу получает очередной рабочий заказ — снять фильм об известном миллиардере Кэмпбелле Бредфорде. Она приезжает в город и ... 7 10 3
Торрент: Зарегистрирован [2022-08-01 18:50] · скачан: 30 раз
Статус: √ проверено
Размер: 12.67 GB
Как cкачать? Как скачать Холодная река через торрент | UTorrent

% Раздел Тема Автор DL S | L
Фильмы 2022 [DVDrip, WEB-DLRip, HDrip] (DUB, MVO) [ 744 MB ] Холодная река / Такая холодная река / So Cold the River | iTunes | HDRip bober100 Скачать
2 | 0
Фильмы 2022 [DVDrip, WEB-DLRip, HDrip] (DUB, MVO) [ 1.71 GB ] Холодная река / Такая холодная река / So Cold the River | iTunes | BDRip-AVC bober100 Скачать
3 | 1
Фильмы [HD 720p, 1080p] (Хороший звук DUB, MVO) [ 7.29 GB ] Холодная река / Такая холодная река / So Cold the River | iTunes | 1080p bober100 Скачать
1 | 0
Фильмы [HD 720p, 1080p] (Хороший звук DUB, MVO) [ 3.94 GB ] Холодная река / Такая холодная река / So Cold the River | iTunes | 720p bober100 Скачать
2 | 0
Фильмы 2022 [DVDrip, WEB-DLRip, HDrip] (DUB, MVO) [ 1.42 GB ] Холодная река / Такая холодная река / So Cold the River | iTunes | BDRip bober100 Скачать
1 | 0

28-11-2019 20:33  

Отключить вcю реклaмy на сайте

    Дорогой пользователь! Огромная просьба, поблагодарите релизера, оцените раздачу и оставьте свои комментарий, если Вы скачали Холодная река через торрент бесплатно!!
    Комментировать посты могут только пользователи прошедшие не сложную регистрацию
    Показать сообщения:    


    Холодная река через торрент
    Скачать бесплатно Холодная река
    Холодная река скачать торрент
    Холодная река смотреть онлайн
    Cкачать фильм Холодная река бесплатно
    Холодная река скачать торрент в хорошем качестве
    Холодная река смотреть онлайн бесплатно в хорошем качестве
    Вы не можете начинать темы
    Вы не можете отвечать на сообщения
    Вы не можете редактировать свои сообщения
    Вы не можете удалять свои сообщения
    Вы не можете голосовать в опросах
    Вы не можете прикреплять файлы к сообщениям
    Вы можете скачивать файлы