Всегда рабочее зеркало без VPN и Proxy просто перед .vidak.icu напиши любое слово или цифру, Пример http://eh8p.vidak.icu

Лицензия

MVO

1 сезон

1

1 сезон

iTunes

1 сезон

13

1 сезон

Deluxe

pack

Рекомендуем

Repack

30

ВАЖНО

RePack

MK11

RePack

jed

RePack

fifa19

RePack

RDR2

RePack

NEED FOR SPEED™ PAYBACK

Кинопоиск HD

6 сезон

 Острые козырьки 6 сезон

Все сериалы

все сериалы на PB.wtf

RePack

FAR CRY 5
  
Magnet ссылка

Холодная река / Такая холодная река / So Cold the River (Пол Шолберг) [2022, Ужасы, триллер, драма, BDRip 720p] DUB [Akimbo Production / iTunes] pb.wtf

Холодная река через торрент pb.wtf

Раздают: 3 [ 195 KB/s ]
Размер: 3.94 GB | Добавлен: 15 д. назад | Торрент скачан:30 раз
Смотреть онлайн Холодная река | Скачать    Ребята, помогите собрать деньги на оплату серверов!!!

02-08-2022 03:31 Холодная река Скачать торрент  

Холодная река / Такая холодная река
So Cold the River

Год выпуска: 2022
Страна: США
Студия: 1804 Productions, Pigasus Pictures
Жанр: Ужасы, триллер, драма
Продолжительность: 01:34:41
Перевод: Профессиональный (полное дублирование) | Akimbo Production | iTunes |
Субтитры: отсутствуют

Режиссер: Пол Шолберг

rating

В ролях: Бетани Джои Ленц, Алисия Райнер, Эндрю Дж. Уэст, Кэти Сариф, Дианна Данаган, Майкл Роджерс, Кевин Кахун, Кингстон Верне, Аарон Роман Уэйнер, Лиа Хаттон Бисмор

Описание: Эрика Шоу получает очередной рабочий заказ — снять фильм об известном миллиардере Кэмпбелле Бредфорде. Она приезжает в город и останавливается в роскошном курортном отеле, который принадлежит Бредфорду. Но, оказавшись один на один с мрачными тайнами этого места, Эрика начинает осознавать, что в стенах местной гостиницы обитает необъяснимое зло.

Качество: BDRip 720p
Формат: MKV

Видео: MPEG-4 AVC, 1280x640, 4928 Кbit/s, 24.000 fps
Аудио #01: 48 kHz, AC3, 5.1, 384 Kbps | iTunes | RUS |
Аудио #02: 48 kHz, AC3, 5.1, 640 Kbps | Оригинал | ENG |
скриншот  скриншот  скриншот  скриншот  

Complete name: Holodnaya.reka.2022.BDRip.720p.ELEKTRI4KA.UNIONGANG.mkv
Format: Matroska
Format version: Version 4
File size: 3.94 GiB
Duration: 1 h 34 min
Overall bit rate: 5 957 kb/s
Movie name: Holodnaya.reka.2022.BDRip.720p.ELEKTRI4KA.UNIONGANG.
Encoded date: UTC 2022-08-01 18:53:01
Writing application: mkvmerge v8.3.0 ('Over the Horizon') 32bit
Writing library: libebml v1.3.1 + libmatroska v1.4.2

Video
ID: 1
Format: AVC
Format/Info: Advanced Video Codec
Format profile: [email protected]
Format settings: CABAC / 10 Ref Frames
Format settings, CABAC: Yes
Format settings, Reference frames: 10 frames
Codec ID: V_MPEG4/ISO/AVC
Duration: 1 h 34 min
Bit rate: 4 928 kb/s
Width: 1 280 pixels
Height: 640 pixels
Display aspect ratio: 2.000
Frame rate mode: Constant
Frame rate: 24.000 FPS
Color space: YUV
Chroma subsampling: 4:2:0
Bit depth: 8 bits
Scan type: Progressive
Bits/(Pixel*Frame): 0.251
Stream size: 3.26 GiB (83%)
Writing library: x264 core 157 r2958 57baac4
Encoding settings: cabac=1 / ref=10 / deblock=1:-3:-3 / analyse=0x3:0x133 / me=umh / subme=10 / psy=1 / psy_rd=1.00:0.00 / mixed_ref=1 / me_range=32 / chroma_me=1 / trellis=2 / 8x8dct=1 / cqm=0 / deadzone=21, 11 / fast_pskip=0 / chroma_qp_offset=-2 / threads=20 / lookahead_threads=3 / sliced_threads=0 / nr=0 / decimate=0 / interlaced=0 / bluray_compat=0 / constrained_intra=0 / bframes=8 / b_pyramid=2 / b_adapt=2 / b_bias=0 / direct=3 / weightb=1 / open_gop=0 / weightp=2 / keyint=240 / keyint_min=24 / scenecut=40 / intra_refresh=0 / rc=2pass / mbtree=0 / bitrate=4928 / ratetol=1.0 / qcomp=0.60 / qpmin=0 / qpmax=69 / qpstep=4 / cplxblur=20.0 / qblur=0.5 / ip_ratio=1.40 / pb_ratio=1.30 / aq=1:1.00
Language: English
Default: Yes
Forced: No
Color range: Limited
Color primaries: BT.709
Transfer characteristics: BT.709
Matrix coefficients: BT.709

Audio #1
ID: 2
Format: AC-3
Format/Info: Audio Coding 3
Commercial name: Dolby Digital
Codec ID: A_AC3
Duration: 1 h 34 min
Bit rate mode: Constant
Bit rate: 384 kb/s
Channel(s): 6 channels
Channel layout: L R C LFE Ls Rs
Sampling rate: 48.0 kHz
Frame rate: 31.250 FPS (1536 SPF)
Compression mode: Lossy
Stream size: 260 MiB (6%)
Title: DUB (iTunes)
Language: Russian
Service kind: Complete Main
Default: Yes
Forced: Yes

Audio #2
ID: 3
Format: AC-3
Format/Info: Audio Coding 3
Commercial name: Dolby Digital
Codec ID: A_AC3
Duration: 1 h 34 min
Bit rate mode: Constant
Bit rate: 640 kb/s
Channel(s): 6 channels
Channel layout: L R C LFE Ls Rs
Sampling rate: 48.0 kHz
Frame rate: 31.250 FPS (1536 SPF)
Compression mode: Lossy
Stream size: 433 MiB (11%)
Title: Original
Language: English
Service kind: Complete Main
Default: No
Forced: No

Menu
00:00:00.000: :Chapter 01
00:08:54.500: :Chapter 02
00:16:22.500: :Chapter 03
00:24:54.708: :Chapter 04
00:30:48.042: :Chapter 05
00:38:39.667: :Chapter 06
00:48:45.333: :Chapter 07
00:55:31.250: :Chapter 08
01:04:04.042: :Chapter 09
01:12:10.333: :Chapter 10
01:18:14.458: :Chapter 11
01:26:52.333: :Chapter 12

pb.wtf



Скачать Холодная река через торрент https://i120.fastpic.org/big/2022/0801/3f/efa89eb8749252a85e9210a80d8fb03f.jpg Скачать, смотреть онлайн Холодная река бесплантно в хорошем качестве Описание: Эрика Шоу получает очередной рабочий заказ — снять фильм об известном миллиардере Кэмпбелле Бредфорде. Она приезжает в город и ... 10 10 2
Торрент: Зарегистрирован [2022-08-02 03:31] · скачан: 30 раз
Статус: √ проверено
Размер: 3.94 GB
Как cкачать? Как скачать Холодная река через торрент | UTorrent

% Раздел Тема Автор DL S | L
Фильмы 2022 [DVDrip, WEB-DLRip, HDrip] (DUB, MVO) [ 744 MB ] Холодная река / Такая холодная река / So Cold the River [2022 HDRip] DUB [Akimbo Production / ] bober100 Скачать
5 | 0
Фильмы 2022 [DVDrip, WEB-DLRip, HDrip] (DUB, MVO) [ 1.71 GB ] Холодная река / Такая холодная река / So Cold the River [2022 BDRip-AVC] DUB [Akimbo Production / ] bober100 Скачать
3 | 0
Фильмы [HD 720p, 1080p] (Хороший звук DUB, MVO) [ 7.29 GB ] Холодная река / Такая холодная река / So Cold the River [2022 BDRip 1080p] DUB [Akimbo Production / ] bober100 Скачать
4 | 0
Фильмы (Blu-ray, BD-Remux, HDDVD) [ 12.67 GB ] Холодная река / Такая холодная река / So Cold the River [2022 BD Remux 1080p] DUB [Akimbo Production / ] bober100 Скачать
4 | 0
Фильмы 2022 [DVDrip, WEB-DLRip, HDrip] (DUB, MVO) [ 1.42 GB ] Холодная река / Такая холодная река / So Cold the River [2022 BDRip] DUB [Akimbo Production / ] bober100 Скачать
5 | 0

28-11-2019 20:33  

Отключить вcю реклaмy на сайте

    Дорогой пользователь! Огромная просьба, поблагодарите релизера, оцените раздачу и оставьте свои комментарий, если Вы скачали Холодная река через торрент бесплатно!
    Комментировать посты могут только пользователи прошедшие не сложную регистрацию
    Показать сообщения:    

    Холодная река через торрент
    Скачать бесплатно Холодная река
    Холодная река скачать торрент
    Холодная река смотреть онлайн
    Cкачать фильм Холодная река бесплатно
    Холодная река скачать торрент в хорошем качестве
    Холодная река смотреть онлайн бесплатно в хорошем качестве


    Вы не можете начинать темы
    Вы не можете отвечать на сообщения
    Вы не можете редактировать свои сообщения
    Вы не можете удалять свои сообщения
    Вы не можете голосовать в опросах
    Вы не можете прикреплять файлы к сообщениям
    Вы можете скачивать файлы