Всегда рабочее зеркало без VPN и Proxy просто перед .vidak.icu напиши любое слово или цифру, Пример http://txe7.vidak.icu

Лицензия

MVO

1 сезон

1

1 сезон

iTunes

1 сезон

13

1 сезон

Deluxe

pack

Рекомендуем

Repack

30

ВАЖНО

RePack

MK11

RePack

jed

RePack

fifa19

RePack

RDR2

RePack

NEED FOR SPEED™ PAYBACK

Кинопоиск HD

6 сезон

 Острые козырьки 6 сезон

Все сериалы

все сериалы на PB.wtf

RePack

FAR CRY 5
  
Magnet ссылка

Холодная река / Такая холодная река / So Cold the River (Пол Шолберг) [2022, Ужасы, триллер, драма, BDRip-AVC] DUB [Akimbo Production / iTunes] pb.wtf

Холодная река через торрент pb.wtf

Раздают: 2 [ 4 KB/s ]
Размер: 1.71 GB | Добавлен: 15 д. назад | Торрент скачан:63 раза
Смотреть онлайн Холодная река | Скачать    Ребята, помогите собрать деньги на оплату серверов!!!

02-08-2022 03:39 Холодная река Скачать торрент  

Холодная река / Такая холодная река
So Cold the River

Год выпуска: 2022
Страна: США
Студия: 1804 Productions, Pigasus Pictures
Жанр: Ужасы, триллер, драма
Продолжительность: 01:34:41
Перевод: Дублированный | Akimbo Production | iTunes |
Субтитры: Английские

Режиссер: Пол Шолберг

rating

В ролях: Бетани Джои Ленц, Алисия Райнер, Эндрю Дж. Уэст, Кэти Сариф, Дианна Данаган, Майкл Роджерс, Кевин Кахун, Кингстон Верне, Аарон Роман Уэйнер, Лиа Хаттон Бисмор

Описание: Эрика Шоу получает очередной рабочий заказ — снять фильм об известном миллиардере Кэмпбелле Бредфорде. Она приезжает в город и останавливается в роскошном курортном отеле, который принадлежит Бредфорду. Но, оказавшись один на один с мрачными тайнами этого места, Эрика начинает осознавать, что в стенах местной гостиницы обитает необъяснимое зло.

Качество: BDRip-AVC
Формат: MKV

Видео: MPEG-4 AVC, 1024×512 at 24.000 fps, [email protected], ~1746 kbps
Аудио #01: 48 kHz, AC3, 5.1, 384 Kbps | iTunes | RUS |
Аудио #02: 48 kHz, AC3, 5.1, 448 Kbps | Оригинал | ENG |
скриншот  скриншот  скриншот  скриншот  

x264 [info]: frame I:969 Avg QP:10.88 size: 57266
x264 [info]: frame P:25251 Avg QP:12.82 size: 19463
x264 [info]: frame B:110124 Avg QP:13.72 size: 6294

General
Unique ID : 334124936597678275287010127162452687152 (0xFB5E1F3F0FCD0CE2B37BC523FD8F3930)
Complete name : D:So.Cold.the.River.2022.BDRip.x264.seleZen.mkv
Format : Matroska
Format version : Version 4
File size : 1.71 GiB
Duration : 1 h 34 min
Overall bit rate : 2 581 kb/s
Movie name : So.Cold.the.River.2022.BDRip.x264.seleZen
Encoded date : UTC 2022-08-01 21:43:04
Writing application : mkvmerge v63.0.0 ('Everything') 64-bit
Writing library : libebml v1.4.2 + libmatroska v1.6.4
Cover : Yes
Attachments : cover.jpg / small_cover.jpg

Video
ID : 1
Format : AVC
Format/Info : Advanced Video Codec
Format profile : [email protected]
Format settings : CABAC / 12 Ref Frames
Format settings, CABAC : Yes
Format settings, Reference : 12 frames
Codec ID : V_MPEG4/ISO/AVC
Duration : 1 h 34 min
Bit rate : 1 746 kb/s
Width : 1 024 pixels
Height : 512 pixels
Display aspect ratio : 2.000
Frame rate mode : Constant
Frame rate : 24.000 FPS
Color space : YUV
Chroma subsampling : 4:2:0
Bit depth : 8 bits
Scan type : Progressive
Bits/(Pixel*Frame) : 0.139
Stream size : 1.15 GiB (68%)
Title : -=DoMiNo=-
Writing library : x264 core 164 by -=DoMiNo=-
Encoding settings : cabac=1 / ref=12 / deblock=1:-3:-3 / analyse=0x3:0x133 / me=umh / subme=11 / psy=1 / psy_rd=1.03:0.03 / mixed_ref=1 / me_range=32 / chroma_me=1 / trellis=2 / 8x8dct=1 / cqm=0 / deadzone=21,11 / fast_pskip=0 / chroma_qp_offset=-3 / threads=16 / lookahead_threads=2 / sliced_threads=0 / nr=0 / decimate=0 / interlaced=0 / bluray_compat=0 / constrained_intra=0 / bframes=9 / b_pyramid=2 / b_adapt=2 / b_bias=0 / direct=1 / weightb=1 / open_gop=0 / weightp=2 / keyint=250 / keyint_min=24 / scenecut=40 / intra_refresh=0 / rc_lookahead=60 / rc=crf / mbtree=0 / crf=16.8 / qcomp=0.60 / qpmin=0 / qpmax=69 / qpstep=4 / vbv_maxrate=50000 / vbv_bufsize=62500 / crf_max=0.0 / nal_hrd=none / filler=0 / ip_ratio=1.30 / pb_ratio=1.20 / aq=3:0.80
Language : English
Default : Yes
Forced : No

Audio #1
ID : 2
Format : AC-3
Format/Info : Audio Coding 3
Commercial name : Dolby Digital
Codec ID : A_AC3
Duration : 1 h 34 min
Bit rate mode : Constant
Bit rate : 384 kb/s
Channel(s) : 6 channels
Channel layout : L R C LFE Ls Rs
Sampling rate : 48.0 kHz
Frame rate : 31.250 FPS (1536 SPF)
Compression mode : Lossy
Stream size : 260 MiB (15%)
Title : DUB
Language : Russian
Service kind : Complete Main
Default : Yes
Forced : Yes

Audio #2
ID : 3
Format : AC-3
Format/Info : Audio Coding 3
Commercial name : Dolby Digital
Codec ID : A_AC3
Duration : 1 h 34 min
Bit rate mode : Constant
Bit rate : 448 kb/s
Channel(s) : 6 channels
Channel layout : L R C LFE Ls Rs
Sampling rate : 48.0 kHz
Frame rate : 31.250 FPS (1536 SPF)
Compression mode : Lossy
Stream size : 303 MiB (17%)
Title : Original
Language : English
Service kind : Complete Main
Default : No
Forced : No

Text
ID : 4
Format : UTF-8
Codec ID : S_TEXT/UTF8
Codec ID/Info : UTF-8 Plain Text
Duration : 1 h 24 min
Bit rate : 52 b/s
Count of elements : 1017
Stream size : 32.2 KiB (0%)
Title : Full
Language : English
Default : No
Forced : No

Menu
00:00:00.000 : en:Chapter 01
00:08:54.500 : en:Chapter 02
00:16:22.500 : en:Chapter 03
00:24:54.708 : en:Chapter 04
00:30:48.042 : en:Chapter 05
00:38:39.667 : en:Chapter 06
00:48:45.333 : en:Chapter 07
00:55:31.250 : en:Chapter 08
01:04:04.042 : en:Chapter 09
01:12:10.333 : en:Chapter 10
01:18:14.458 : en:Chapter 11
01:26:52.333 : en:Chapter 12

pb.wtf



Скачать Холодная река через торрент https://i120.fastpic.org/big/2022/0801/3f/efa89eb8749252a85e9210a80d8fb03f.jpg Скачать, смотреть онлайн Холодная река бесплантно в хорошем качестве Описание: Эрика Шоу получает очередной рабочий заказ — снять фильм об известном миллиардере Кэмпбелле Бредфорде. Она приезжает в город и ... 10 10 5
Торрент: Зарегистрирован [2022-08-02 03:39] · скачан: 63 раз
Статус: √ проверено
Размер: 1.71 GB
Как cкачать? Как скачать Холодная река через торрент | UTorrent

% Раздел Тема Автор DL S | L
Фильмы 2022 [DVDrip, WEB-DLRip, HDrip] (DUB, MVO) [ 744 MB ] Холодная река / Такая холодная река / So Cold the River [2022 HDRip] DUB [Akimbo Production / ] bober100 Скачать
5 | 0
Фильмы [HD 720p, 1080p] (Хороший звук DUB, MVO) [ 7.29 GB ] Холодная река / Такая холодная река / So Cold the River [2022 BDRip 1080p] DUB [Akimbo Production / ] bober100 Скачать
4 | 0
Фильмы [HD 720p, 1080p] (Хороший звук DUB, MVO) [ 3.94 GB ] Холодная река / Такая холодная река / So Cold the River [2022 BDRip 720p] DUB [Akimbo Production / ] bober100 Скачать
4 | 0
Фильмы (Blu-ray, BD-Remux, HDDVD) [ 12.67 GB ] Холодная река / Такая холодная река / So Cold the River [2022 BD Remux 1080p] DUB [Akimbo Production / ] bober100 Скачать
4 | 0
Фильмы 2022 [DVDrip, WEB-DLRip, HDrip] (DUB, MVO) [ 1.42 GB ] Холодная река / Такая холодная река / So Cold the River [2022 BDRip] DUB [Akimbo Production / ] bober100 Скачать
5 | 0

28-11-2019 20:33  

Отключить вcю реклaмy на сайте

    Дорогой пользователь! Огромная просьба, поблагодарите релизера, оцените раздачу и оставьте свои комментарий, если Вы скачали Холодная река через торрент бесплатно!
    Комментировать посты могут только пользователи прошедшие не сложную регистрацию
    Показать сообщения:    

    Холодная река через торрент
    Скачать бесплатно Холодная река
    Холодная река скачать торрент
    Холодная река смотреть онлайн
    Cкачать фильм Холодная река бесплатно
    Холодная река скачать торрент в хорошем качестве
    Холодная река смотреть онлайн бесплатно в хорошем качестве


    Вы можете начинать темы
    Вы можете отвечать на сообщения
    Вы не можете редактировать свои сообщения
    Вы не можете удалять свои сообщения
    Вы не можете голосовать в опросах
    Вы не можете прикреплять файлы к сообщениям
    Вы можете скачивать файлы