Доктор Стрэндж

Лицензия

Добыча

MVO

Дом дракона

1 сезон

Тор

Лицензия

Мэверик

Лицензия

Там, где раки поют

MVO

Властелин колец

1 сезон

Ultimate

pack

Рекомендуем

30

Repack

ВАЖНО

ВАЖНО

Ghostwire

RePack

jed

RePack

nioh2

RePack

RDR2

RePack

NEED FOR SPEED™ PAYBACK

RePack

скачать торрент

Кинопоиск HD

Острые козырьки 6 сезон

6 сезон

FAR CRY 6

RePack

скачать торрент

Лицензия

скачать торрент

MVO

1

1 сезон

скачать торрент

1 сезон

скачать торрент

Лицензия

  

Мир Юрского периода: Господство / Jurassic World Dominion (Колин Треворроу) [2022, Фантастика, боевик, триллер, приключения, BD Remux 1080p] DUB [Jaskier] +3xMVO

Мир Юрского периода: Господство через торрент pb.wtf

Раздают: 1 [ 0 KB/s ]
Размер: 29.48 GB | Добавлен: 2 мес. 1 д. назад | Торрент скачан:103 раза
Смотреть онлайн Мир Юрского периода: Господство | Скачать   

02-08-2022 17:28 Мир Юрского периода: Господство Скачать торрент  

Мир Юрского периода: Господство
Jurassic World Dominion

Год выпуска: 2022
Страна: США, Китай, Мальта
Выпущено: Amblin Entertainment, Latina Pictures, Perfect World (Beijing) Pictures Co., Universal Pictures
Жанр: Фантастика, боевик, триллер, приключения
Продолжительность: 02:26:57
Перевод(ы):
#1: Дублированный | Jaskier
#2: Профессиональный многоголосый | Lostfilm
#3: Профессиональный многоголосый | Jaskier
#4: Профессиональный многоголосый | NewComers
Субтитры: Русские (Forced, full), английские

Режиссер: Колин Треворроу

rating

В ролях: Крис Прэтт, Брайс Даллас Ховард, Лора Дерн, Сэм Нилл, Джефф Голдблюм, ДеВанда Уайз, Мамуду Ати, Изабелла Сермон, Кэмпбелл Скотт, Б. Д. Вонг

Описание: После уничтожения острова Нублар динозавры вырвались на свободу и заполнили планету. Людям удается поддерживать хрупкое равновесие, определяющее мирное сосуществование на Земле. Но как долго человек сможет сохранять свое господство, живя по соседству с самыми устрашающими существами в истории?

Качество: BD Remux 1080p
Формат: MKV

Видео: MPEG-4 AVC, 1920x1080, 22.8 Mbit/s, 23.976 fps
Аудио #01: 48 kHz, AC3, 5.1, 448 Kbps | Дублированный | Jaskier | RUS |
Аудио #02: 48 kHz, DTS, 5.1, 768 Kbps | Профессиональный многоголосый | Lostfilm | RUS |
Аудио #03: 48 kHz, AC3, 5.1, 448 Kbps | Профессиональный многоголосый | Lostfilm | RUS |
Аудио #04: 48 kHz, AC3, 5.1, 448 Kbps | Профессиональный многоголосый | Jaskier | RUS |
Аудио #05: 48 kHz, AC3, 5.1, 448 Kbps | Профессиональный многоголосый | NewComers | RUS |
Аудио #06: 48 kHz, DTS-HD MA, 7.1, 3309 Kbps | Оригинал | ENG |
скриншот  скриншот  скриншот  скриншот  скриншот  скриншот  

General
Unique ID : 181071690374618927158656400447818265065 (0x8839239942D973086430093551B571E9)
Complete name : D:Jurassic.World.Dominion.2022.BDREMUX.1080p.seleZen.mkv
Format : Matroska
Format version : Version 4
File size : 29.5 GiB
Duration : 2 h 26 min
Overall bit rate mode : Variable
Overall bit rate : 28.7 Mb/s
Movie name : Jurassic World Dominion 2022 from seleZen
Encoded date : UTC 2022-08-02 11:37:53
Writing application : mkvmerge v59.0.0 ('Shining Star') 64-bit
Writing library : libebml v1.4.2 + libmatroska v1.6.4

Video
ID : 1
Format : AVC
Format/Info : Advanced Video Codec
Format profile : [email protected]
Format settings : CABAC / 2 Ref Frames
Format settings, CABAC : Yes
Format settings, Reference : 2 frames
Format settings, GOP : M=1, N=10
Codec ID : V_MPEG4/ISO/AVC
Duration : 2 h 26 min
Bit rate mode : Variable
Bit rate : 22.8 Mb/s
Width : 1 920 pixels
Height : 1 080 pixels
Display aspect ratio : 16:9
Frame rate mode : Constant
Frame rate : 23.976 (24000/1001) FPS
Color space : YUV
Chroma subsampling : 4:2:0
Bit depth : 8 bits
Scan type : Progressive
Bits/(Pixel*Frame) : 0.459
Stream size : 23.4 GiB (80%)
Language : English
Default : No
Forced : No

Audio #1
ID : 2
Format : AC-3
Format/Info : Audio Coding 3
Commercial name : Dolby Digital
Codec ID : A_AC3
Duration : 2 h 26 min
Bit rate mode : Constant
Bit rate : 448 kb/s
Channel(s) : 6 channels
Channel layout : L R C LFE Ls Rs
Sampling rate : 48.0 kHz
Frame rate : 31.250 FPS (1536 SPF)
Compression mode : Lossy
Stream size : 471 MiB (2%)
Title : Dub [Jaskier]
Language : Russian
Service kind : Complete Main
Default : Yes
Forced : Yes

Audio #2
ID : 3
Format : DTS
Format/Info : Digital Theater Systems
Codec ID : A_DTS
Duration : 2 h 26 min
Bit rate mode : Constant
Bit rate : 768 kb/s
Channel(s) : 6 channels
Channel layout : C L R Ls Rs LFE
Sampling rate : 48.0 kHz
Frame rate : 93.750 FPS (512 SPF)
Bit depth : 24 bits
Compression mode : Lossy
Stream size : 807 MiB (3%)
Title : MVO [Lostfilm]
Language : Russian
Default : No
Forced : No

Audio #3
ID : 4
Format : AC-3
Format/Info : Audio Coding 3
Commercial name : Dolby Digital
Codec ID : A_AC3
Duration : 2 h 26 min
Bit rate mode : Constant
Bit rate : 448 kb/s
Channel(s) : 6 channels
Channel layout : L R C LFE Ls Rs
Sampling rate : 48.0 kHz
Frame rate : 31.250 FPS (1536 SPF)
Compression mode : Lossy
Stream size : 471 MiB (2%)
Title : MVO [Lostfilm]
Language : Russian
Service kind : Complete Main
Default : No
Forced : No

Audio #4
ID : 5
Format : AC-3
Format/Info : Audio Coding 3
Commercial name : Dolby Digital
Codec ID : A_AC3
Duration : 2 h 26 min
Bit rate mode : Constant
Bit rate : 448 kb/s
Channel(s) : 6 channels
Channel layout : L R C LFE Ls Rs
Sampling rate : 48.0 kHz
Frame rate : 31.250 FPS (1536 SPF)
Compression mode : Lossy
Stream size : 471 MiB (2%)
Title : MVO [Jaskier]
Language : Russian
Service kind : Complete Main
Default : No
Forced : No

Audio #5
ID : 6
Format : AC-3
Format/Info : Audio Coding 3
Commercial name : Dolby Digital
Codec ID : A_AC3
Duration : 2 h 26 min
Bit rate mode : Constant
Bit rate : 448 kb/s
Channel(s) : 6 channels
Channel layout : L R C LFE Ls Rs
Sampling rate : 48.0 kHz
Frame rate : 31.250 FPS (1536 SPF)
Compression mode : Lossy
Stream size : 471 MiB (2%)
Title : MVO [NewComers]
Language : Russian
Service kind : Complete Main
Default : No
Forced : No

Audio #6
ID : 7
Format : DTS XLL X
Format/Info : Digital Theater Systems
Commercial name : DTS-HD Master Audio
Codec ID : A_DTS
Duration : 2 h 26 min
Bit rate mode : Variable
Bit rate : 3 309 kb/s
Channel(s) : 8 channels
Channel(s)_Original : Object Based
ChannelLayout_Original : Object Based
Sampling rate : 48.0 kHz
Frame rate : 93.750 FPS (512 SPF)
Bit depth : 24 bits
Stream size : 3.40 GiB (12%)
Title : Original
Language : English
Default : No
Forced : No

Text #1
ID : 8
Format : UTF-8
Codec ID : S_TEXT/UTF8
Codec ID/Info : UTF-8 Plain Text
Duration : 1 h 41 min
Bit rate : 1 b/s
Frame rate : 0.002 FPS
Count of elements : 15
Stream size : 763 Bytes (0%)
Title : Forced
Language : Russian
Default : Yes
Forced : Yes

Text #2
ID : 9
Format : UTF-8
Codec ID : S_TEXT/UTF8
Codec ID/Info : UTF-8 Plain Text
Duration : 2 h 14 min
Bit rate : 70 b/s
Frame rate : 0.176 FPS
Count of elements : 1424
Stream size : 69.4 KiB (0%)
Title : Full [NewComers]
Language : Russian
Default : No
Forced : No

Text #3
ID : 10
Format : UTF-8
Codec ID : S_TEXT/UTF8
Codec ID/Info : UTF-8 Plain Text
Duration : 2 h 26 min
Bit rate : 45 b/s
Frame rate : 0.207 FPS
Count of elements : 1820
Stream size : 48.4 KiB (0%)
Title : Full
Language : English
Default : No
Forced : No

Text #4
ID : 11
Format : UTF-8
Codec ID : S_TEXT/UTF8
Codec ID/Info : UTF-8 Plain Text
Duration : 2 h 26 min
Bit rate : 55 b/s
Frame rate : 0.272 FPS
Count of elements : 2393
Stream size : 60.2 KiB (0%)
Title : SDH
Language : English
Default : No
Forced : No

Menu
00:00:00.000 : Chapter 01
00:07:57.560 : Chapter 02
00:11:36.362 : Chapter 03
00:25:30.070 : Chapter 04
00:35:48.271 : Chapter 05
00:42:56.282 : Chapter 06
00:47:53.788 : Chapter 07
00:54:45.407 : Chapter 08
01:04:51.054 : Chapter 09
01:14:49.026 : Chapter 10
01:25:28.373 : Chapter 11
01:30:44.355 : Chapter 12
01:38:17.975 : Chapter 13
01:44:28.345 : Chapter 14
01:48:09.483 : Chapter 15
02:04:34.425 : Chapter 16
02:08:56.896 : Chapter 17
02:14:12.961 : Chapter 18
02:23:16.921 : Chapter 19
02:29:59.032 : Chapter 20




Скачать Мир Юрского периода: Господство через торрент https://i120.fastpic.org/big/2022/0801/c7/00fcf5da40d798645f7e6cd9acca7ac7.jpg Скачать, смотреть онлайн Мир Юрского периода: Господство бесплантно в хорошем качестве Описание: После уничтожения острова Нублар динозавры вырвались на свободу и заполнили планету. Людям удается поддерживать хрупкое ... 8.6 10 5
Торрент: Зарегистрирован [2022-08-02 17:28] · скачан: 103 раз
Статус: √ проверено
Размер: 29.48 GB
Как cкачать? Как скачать Мир Юрского периода: Господство через торрент | UTorrent

% Раздел Тема Автор DL S | L
Фильмы 2022 [DVDrip, WEB-DLRip, HDrip] (DUB, MVO) [ 4.86 GB ] Мир Юрского периода: Господство / Jurassic World Dominion | Jaskier | HDRip-AVC bober100 Скачать
6 | 0
Фильмы [HD 720p, 1080p] (Хороший звук DUB, MVO) [ 17.64 GB ] Мир Юрского периода: Господство / Jurassic World Dominion | Jaskier | 1080p bober100 Скачать
9 | 0
Фильмы [HD 720p, 1080p] (Хороший звук DUB, MVO) [ 7.63 GB ] Мир Юрского периода: Господство / Jurassic World Dominion | Jaskier | 720p bober100 Скачать
4 | 0

28-11-2019 20:33  

Отключить вcю реклaмy на сайте

    Дорогой пользователь! Огромная просьба, поблагодарите релизера, оцените раздачу и оставьте свои комментарий, если Вы скачали Мир Юрского периода: Господство через торрент бесплатно!!
    Комментировать посты могут только пользователи прошедшие не сложную регистрацию
    Показать сообщения:    


    Мир Юрского периода: Господство через торрент
    Скачать бесплатно Мир Юрского периода: Господство
    Мир Юрского периода: Господство скачать торрент
    Мир Юрского периода: Господство смотреть онлайн
    Cкачать фильм Мир Юрского периода: Господство бесплатно
    Мир Юрского периода: Господство скачать торрент в хорошем качестве
    Мир Юрского периода: Господство смотреть онлайн бесплатно в хорошем качестве
    Вы не можете начинать темы
    Вы не можете отвечать на сообщения
    Вы не можете редактировать свои сообщения
    Вы не можете удалять свои сообщения
    Вы не можете голосовать в опросах
    Вы не можете прикреплять файлы к сообщениям
    Вы можете скачивать файлы