Всегда рабочее зеркало без VPN и Proxy просто перед .vidak.icu напиши любое слово или цифру, Пример http://5jtn.vidak.icu

Лицензия

MVO

1 сезон

1

1 сезон

iTunes

1 сезон

13

1 сезон

Deluxe

pack

Рекомендуем

Repack

30

ВАЖНО

RePack

MK11

RePack

jed

RePack

fifa19

RePack

RDR2

RePack

NEED FOR SPEED™ PAYBACK

Кинопоиск HD

6 сезон

 Острые козырьки 6 сезон

Все сериалы

все сериалы на PB.wtf

RePack

FAR CRY 5
  
Magnet ссылка

Юморист (Михаил Идов) [2018, Драма, биография, BDRip 1080p] [Лицензия BD RUS] pb.wtf

Юморист через торрент pb.wtf

Раздают: 4 [ 0 KB/s ]
Размер: 11.67 GB | Добавлен: 14 д. назад | Торрент скачан:42 раза
Смотреть онлайн Юморист | Скачать    Ребята, помогите собрать деньги на оплату серверов!!!

02-08-2022 23:40 Юморист Скачать торрент  

Юморист Год выпуска: 2018
Страна: Россия, Латвия, Чехи
Студия: Метрафильмс, Sirena Film, Tasse Film
Жанр: Драма, биография
Продолжительность: 01:42:07
Перевод: Не требуется | Лицензия BD RUS
Субтитры: отсутствуют

Режиссер: Михаил Идов

rating

В ролях: Алексей Агранович, Юрий Колокольников, Яна Сексте, Вильма Кутавичюте, Семён Штейнберг, Алиса Хазанова, Павел Ильин, Полина Ауг, Юлия Ауг, Ольга Дибцева, Анатолий Котенёв

Описание: У эстрадного юмориста Бориса Аркадьева в жизни все хорошо: счастливая семья, обожание миллионов, очередь поклонниц и благосклонность властей. Но комику не дает покоя несвобода и внешняя, и внутренняя: чем громче его успех на сцене, тем сильнее в нем назревает протест. И вот уже самый смешной становится слишком опасным.

Качество: BDRip 1080p
Формат: MKV

Видео: MPEG-4 AVC, x264, 1280x538, 6588 kbps, 24,000 fps
Аудио 1: Russian: DTS, 5.1 ch, 48 kHz, 1509 kbps | Лицензия
Аудио 2: Russian: AC3, 5.1 ch, 48 kHz, 640 kbps | Лицензия

Общее
Уникальный идентификатор : 210733957864596486396249134609858674622 (0x9E89E24C30A0D871ADDD10643851BFBE)
Полное имя : E:TorrentYumoristBDRip1080p.mkv
Формат : Matroska
Версия формата : Version 4
Размер файла : 11,7 Гбайт
Продолжительность : 1 ч. 42 м.
Общий поток : 16,4 Мбит/сек
Дата кодирования : UTC 2022-08-02 01:20:47
Программа кодирования : mkvmerge v9.5.0 ('Quiet Fire') 64bit
Библиотека кодирования : libebml v1.3.4 + libmatroska v1.4.5

Видео
Идентификатор : 1
Формат : AVC
Формат/Информация : Advanced Video Codec
Профиль формата : [email protected]
Настройки формата : CABAC / 5 Ref Frames
Параметр CABAC формата : Да
Параметр RefFrames формата : 5 кадров
Идентификатор кодека : V_MPEG4/ISO/AVC
Продолжительность : 1 ч. 42 м.
Битрейт : 14,2 Мбит/сек
Ширина : 1 920 пикселей
Высота : 808 пикселей
Соотношение сторон : 2,40:1
Режим частоты кадров : Постоянный
Частота кадров : 24,000 кадра/сек
Цветовое пространство : YUV
Субдискретизация насыщенности : 4:2:0
Битовая глубина : 8 бит
Тип развёртки : Прогрессивная
Бит/(Пиксели*Кадры) : 0.382
Размер потока : 10,1 Гбайт (87%)
Заголовок : Sisendrovich(R)
Библиотека кодирования : x264 core 164 r3081 19856cc
Настройки программы : cabac=1 / ref=5 / deblock=1:-1:-1 / analyse=0x3:0x133 / me=tesa / subme=11 / psy=1 / psy_rd=1.00:0.00 / mixed_ref=1 / me_range=32 / chroma_me=1 / trellis=2 / 8x8dct=1 / cqm=0 / deadzone=21,11 / fast_pskip=0 / chroma_qp_offset=-2 / threads=24 / lookahead_threads=6 / sliced_threads=0 / nr=0 / decimate=0 / interlaced=0 / bluray_compat=0 / constrained_intra=0 / bframes=12 / b_pyramid=2 / b_adapt=2 / b_bias=0 / direct=3 / weightb=1 / open_gop=0 / weightp=2 / keyint=240 / keyint_min=23 / scenecut=40 / intra_refresh=0 / rc_lookahead=60 / rc=2pass / mbtree=0 / bitrate=14231 / ratetol=1.0 / qcomp=0.70 / qpmin=0 / qpmax=69 / qpstep=4 / cplxblur=20.0 / qblur=0.5 / vbv_maxrate=50000 / vbv_bufsize=62500 / nal_hrd=none / filler=0 / ip_ratio=1.40 / pb_ratio=1.30 / aq=3:0.80
Язык : Russian
Default : Да
Forced : Нет
Цветовой диапазон : Limited
Основные цвета : BT.709
Характеристики трансфера : BT.709
Коэффициенты матрицы : BT.709

Аудио #1
Идентификатор : 2
Формат : DTS
Формат/Информация : Digital Theater Systems
Идентификатор кодека : A_DTS
Продолжительность : 1 ч. 42 м.
Вид битрейта : Постоянный
Битрейт : 1 509 Кбит/сек
Каналы : 6 каналов
Channel layout : C L R Ls Rs LFE
Частота : 48,0 КГц
Частота кадров : 93,750 кадра/сек (512 SPF)
Битовая глубина : 24 бит
Метод сжатия : С потерями
Размер потока : 1,08 Гбайт (9%)
Заголовок : rusDTS
Язык : Russian
Default : Да
Forced : Нет

Аудио #2
Идентификатор : 3
Формат : AC-3
Формат/Информация : Audio Coding 3
Коммерческое название : Dolby Digital
Идентификатор кодека : A_AC3
Продолжительность : 1 ч. 42 м.
Вид битрейта : Постоянный
Битрейт : 640 Кбит/сек
Каналы : 6 каналов
Channel layout : L R C LFE Ls Rs
Частота : 48,0 КГц
Частота кадров : 31,250 кадров/сек (1536 SPF)
Метод сжатия : С потерями
Размер потока : 467 Мбайт (4%)
Заголовок : rusAC3
Язык : Russian
Default : Нет
Forced : Нет

Меню
00:00:00.000 : en:Глава 01
00:02:45.250 : en:Глава 02
00:11:06.375 : en:Глава 03
00:22:57.541 : en:Глава 04
00:32:18.125 : en:Глава 05
00:43:33.541 : en:Глава 06
00:53:43.833 : en:Глава 07
01:03:23.416 : en:Глава 08
01:12:42.708 : en:Глава 09
01:23:22.625 : en:Глава 10
01:33:23.500 : en:Глава 11

pb.wtf



Скачать Юморист через торрент https://i120.fastpic.org/big/2022/0803/7c/83617178e5d19b1000bb1a432dc11c7c.jpeg Скачать, смотреть онлайн Юморист бесплантно в хорошем качестве Описание: У эстрадного юмориста Бориса Аркадьева в жизни все хорошо: счастливая семья, обожание миллионов, очередь поклонниц и ... 7.5 10 6
Торрент: Зарегистрирован [2022-08-02 23:40] · скачан: 42 раз
Статус: √ проверено
Размер: 11.67 GB
Как cкачать? Как скачать Юморист через торрент | UTorrent

% Раздел Тема Автор DL S | L
TNT serials [ 482 MB ] Наша Russia - Александр Родионович Бородач [2011 Юмористическое шоу SATRip Пиратка] Alex010484 Скачать
1 | 0
Comedy Club - Комеди Клаб new [ 639 MB ] Stand Up [2013 Юмористическое шоу WEB-DLRip Оригинал] кэп Скачать
1 | 0
Музыка других жанров [ 250 MB ] Нуждики [Юмористическое шоу радиостанции maximum] MP3 MrKuzj Скачать
1 | 0
TNT serials [ 6.58 GB ] Однажды в России / сезон 4 / 11 серий из ??? [2016 Юмористическое тв-шоу WEB-DLRip] bober100 Скачать
1 | 0
Вечерний Квартал [ 1.15 GB ] Вечерний квартал [92] - В Юрмале Часть 2 [17.10.2016 Юмористическое шоу концерт SATRip] Ворон Скачать
1 | 0
TNT serials [ 301 MB ] Наша Russia / Жорик Вартанов [2009 Юмористическое шоу SATRip] Имран Скачать
1 | 0
Вечерний Квартал [ 1.21 GB ] Вечерний квартал [91] - В Юрмале Часть 1 [10.10.2016 Юмористическое шоу концерт SATRip] Ворон Скачать
1 | 0

28-11-2019 20:33  

Отключить вcю реклaмy на сайте

03-08-2022 21:37 Юморист Скачать торрент  

хорошее кино pb.wtf



08-08-2022 00:52 Юморист Скачать торрент  

Очередная антисоветчина!
Ездил герой фильма по Юрмалам и вечеринкам партноменклатуры и сильно морально Страдал, бесплатная трёхкомнатная квартира в Москве, пачки рублей в карманах и красивые почитательницы в постелях гостиниц, Никак не могли скрасить его Моральные страдания 😀
И дочка Хазанова снялась в роли жены. Случайно не папочка страдал!?pb.wtf



    Дорогой пользователь! Огромная просьба, поблагодарите релизера, оцените раздачу и оставьте свои комментарий, если Вы скачали Юморист через торрент бесплатно!
    Комментировать посты могут только пользователи прошедшие не сложную регистрацию
    Показать сообщения:    

    Юморист через торрент
    Скачать бесплатно Юморист
    Юморист скачать торрент
    Юморист смотреть онлайн
    Cкачать фильм Юморист бесплатно
    Юморист скачать торрент в хорошем качестве
    Юморист смотреть онлайн бесплатно в хорошем качестве


    Вы не можете начинать темы
    Вы не можете отвечать на сообщения
    Вы не можете редактировать свои сообщения
    Вы не можете удалять свои сообщения
    Вы не можете голосовать в опросах
    Вы не можете прикреплять файлы к сообщениям
    Вы можете скачивать файлы