Всегда рабочее зеркало без VPN и Proxy просто перед .vidak.icu напиши любое слово или цифру, Пример http://txsg.vidak.icu

Лицензия

MVO

1 сезон

1

1 сезон

iTunes

1 сезон

13

1 сезон

Deluxe

pack

Рекомендуем

Repack

30

ВАЖНО

RePack

MK11

RePack

jed

RePack

fifa19

RePack

RDR2

RePack

NEED FOR SPEED™ PAYBACK

Кинопоиск HD

6 сезон

 Острые козырьки 6 сезон

Все сериалы

все сериалы на PB.wtf

RePack

FAR CRY 5
  
Magnet ссылка

Одна (Дмитрий Суворов) [2021, Драма, триллер, WEB-DL 1080p] pb.wtf

Одна через торрент pb.wtf

Раздают: 19 [ 332 KB/s ] Качают: 5 [ 2 MB/s ]
Размер: 4.59 GB | Добавлен: 13 д. назад | Торрент скачан:311 раз
Смотреть онлайн Одна | Скачать    Ребята, помогите собрать деньги на оплату серверов!!!

04-08-2022 11:56 Одна Скачать торрент  

Одна
Год выпуска: 2021
Страна: Россия
Студия: ССБ Кино
Жанр: Драма, триллер
Продолжительность: 01:37:04
Перевод: Не требуется
Субтитры: отсутствуют

Режиссер: Дмитрий Суворов

rating

В ролях: Надежда Калеганова, Виктор Добронравов, Максим Иванов, Мария Сокова, Ян Цапник, Леонид Громов, Никита Тарасов, Владислав Ветров, Виталия Корниенко, Антон Багров

Описание: 24 августа 1981 года молодожены Лариса и Владимир Савицкие ступили на борт самолета, следующего рейсом Комсомольск-на-Амуре — Благовещенск. За 30 минут до посадки гражданский борт АН-24 столкнулся с другим самолетом и развалился на куски на высоте более 5 километров над землей. Выжить не должен был никто, но произошло чудо — Лариса очнулась посреди обломков самолета в непроходимой тайге.

Качество: WEB-DL 1080p
Формат: MKV

Видео: MPEG-4 AVC, 6144 Kbit/с, 1920x1080, 24 fps
Аудио: 48 kHz, AC3 Dolby Digital, 3/2 (L, C, R, l, r) + LFE ch, ~640 Kbps
скриншот  скриншот  скриншот  скриншот  скриншот  скриншот  

Общее
Уникальный идентификатор: 230747071763313422364637663142908168665 (0xAD9844FE886B084DFDABF9760E5689D9)
Полное имя: D:Odna.2021.WEB-DL.1080p.mkv
Формат: Matroska
Версия формата: Version 4
Размер файла: 4, 59 Гбайт
Продолжительность: 1 ч. 37 м.
Режим общего битрейта: Постоянный
Общий поток: 6 765 Кбит/сек
Название фильма: Odna.2021.WEB-DL.1080p
Дата кодирования: UTC 2022-08-04 03:21:55
Программа кодирования: mkvmerge v68.0.0 ('The Curtain') 64-bit
Библиотека кодирования: libebml v1.4.2 + libmatroska v1.6.4
Attachments: poster.jpg

Видео
Идентификатор: 1
Формат: AVC
Формат/Информация: Advanced Video Codec
Профиль формата: [email protected]
Настройки формата: 2 Ref Frames
Параметр CABAC формата: Нет
Параметр RefFrames формата: 2 кадра
Идентификатор кодека: V_MPEG4/ISO/AVC
Продолжительность: 1 ч. 37 м.
Вид битрейта: Постоянный
Битрейт: 6 144 Кбит/сек
Ширина: 1 920 пикселей
Высота: 1 080 пикселей
Соотношение сторон: 16:9
Режим частоты кадров: Постоянный
Частота кадров: 24, 000 кадра/сек
Цветовое пространство: YUV
Субдискретизация насыщенности: 4:2:0
Битовая глубина: 8 бит
Тип развёртки: Прогрессивная
Бит/(Пиксели*Кадры): 0.123
Размер потока: 4, 15 Гбайт (90%)
Default: Да
Forced: Нет

Аудио
Идентификатор: 2
Формат: AC-3
Формат/Информация: Audio Coding 3
Коммерческое название: Dolby Digital
Идентификатор кодека: A_AC3
Продолжительность: 1 ч. 37 м.
Вид битрейта: Постоянный
Битрейт: 640 Кбит/сек
Каналы: 6 каналов
Channel layout: L R C LFE Ls Rs
Частота: 48, 0 КГц
Частота кадров: 31, 250 кадров/сек (1536 SPF)
Метод сжатия: С потерями
Размер потока: 444 Мбайт (9%)
Заголовок: [Original | AC3 Audio]
Язык: Russian
Service kind: Complete Main
Default: Да
Forced: Нет

pb.wtf



Скачать Одна через торрент https://i120.fastpic.org/big/2022/0804/b3/a3a5c3917c37c2ce2e410bb4490ebdb3.jpg Скачать, смотреть онлайн Одна бесплантно в хорошем качестве Описание: 24 августа 1981 года молодожены Лариса и Владимир Савицкие ступили на борт самолета, следующего рейсом Комсомольск-на-Амуре — ... 8.6 10 13
Info! Золотая раздача, скачанное не засчитывается.
Торрент: Зарегистрирован [2022-08-04 11:56] · скачан: 311 раз
Статус: √ проверено
Размер: 4.59 GB
Как cкачать? Как скачать Одна через торрент | UTorrent

% Раздел Тема Автор DL S | L
Наши фильмы, до 2010 [ 1.35 GB ] В бой идут одни старики [1973 Военный DVDRip] paul08 Скачать
1 | 0
Фильмы 2001-2005 [ 1.37 GB ] Однажды в апреле / Sometimes in April [2005 Военная DVDRip] DimonBudy Скачать
1 | 0
Сборники (HD Video) [ 24.83 GB ] Однажды в Америке / Once Upon a Time in America [Серджио Леоне] [1984 BDRip 720p] Romeo0502 Скачать
1 | 1
Документальные фильмы и телепередачи [ 1.02 GB ] Мир подводной охоты.Выпуск 7.Большая охота на Волге /Видеоприложение журнала [2009 Подводная охота DVDRip] paul08 Скачать
1 | 0
Фильмы 2006-2008 [ 2.18 GB ] Безымянная - одна женщина в Берлине / Anonyma - Eine Frau in Berlin [2008 военный ВDRip] kycher1972 Скачать
1 | 0
Фильмы до 2000 г. [ 1.46 GB ] 100 девчонок и одна в лифте / 100 Girls [2000 DVDRip] Devil39 Скачать
1 | 0
S.T.A.L.K.E.R. [ 5.63 GB ] S.T.A.L.K.E.R. - Народная Солянка 2011 - DMX Edition 2011 [RePackRUShooter Action TPS] от cdman =Чувак= Скачать
1 | 0

28-11-2019 20:33  

Отключить вcю реклaмy на сайте

04-08-2022 12:19 Одна Скачать торрент  

в фильме нет ни интриги,ни интересных сьемок,ничего.посмотрел и забыл.оценки завышенные сильно.разочарован.pb.wtf



05-08-2022 17:24 Одна Скачать торрент  

Люблю подобные фильмы. Надо будет глянуть.pb.wtf



08-08-2022 00:56 Одна Скачать торрент  

Очередная антисоветчина!
Злой генерал послал КГБшника найти виновных и всё Скрыть 😀
Тот приехал в городишко закрыл его, объявив эпидемию ящера и т д.
Плакат *Слава КПСС*, на входе в аэропорт, больше вывески самого Аэропорта, на дорогах транспоранты длиной метров по 50 прибиты к деревьям на высоте 1 м 😀pb.wtf



09-08-2022 08:13 Одна Скачать торрент  

ЗАЧЕТ.pb.wtf



    Дорогой пользователь! Огромная просьба, поблагодарите релизера, оцените раздачу и оставьте свои комментарий, если Вы скачали Одна через торрент бесплатно!
    Комментировать посты могут только пользователи прошедшие не сложную регистрацию
    Показать сообщения:    

    Одна через торрент
    Скачать бесплатно Одна
    Одна скачать торрент
    Одна смотреть онлайн
    Cкачать фильм Одна бесплатно
    Одна скачать торрент в хорошем качестве
    Одна смотреть онлайн бесплатно в хорошем качестве


    Вы не можете начинать темы
    Вы не можете отвечать на сообщения
    Вы не можете редактировать свои сообщения
    Вы не можете удалять свои сообщения
    Вы не можете голосовать в опросах
    Вы не можете прикреплять файлы к сообщениям
    Вы можете скачивать файлы