Всегда рабочее зеркало без VPN и Proxy просто перед .vidak.icu напиши любое слово или цифру, Пример http://ri6o.vidak.icu

Лицензия

MVO

1 сезон

1

1 сезон

iTunes

1 сезон

13

1 сезон

Deluxe

pack

Рекомендуем

Repack

30

ВАЖНО

RePack

MK11

RePack

jed

RePack

fifa19

RePack

RDR2

RePack

NEED FOR SPEED™ PAYBACK

Кинопоиск HD

6 сезон

 Острые козырьки 6 сезон

Все сериалы

все сериалы на PB.wtf

RePack

FAR CRY 5
  
Magnet ссылка

Тем, кто был незащищён / Mamorarenakatta Monotachi e / In the Wake (Такахиса Дзэдзэ) [2021, Детектив, криминал, драма, HDRip-AVC] AVO [А. Смирнов] от ExKinoRay pb.wtf

Тем, кто был незащищён через торрент pb.wtf

Размер: 2.33 GB | Добавлен: 12 д. назад | Торрент скачан:3 раза
Смотреть онлайн Тем, кто был незащищён | Скачать    Ребята, помогите собрать деньги на оплату серверов!!!

04-08-2022 17:14 Тем, кто был незащищён Скачать торрент  


Тем, кто был незащищён / Mamorarenakatta Monotachi e / In the Wake
Информация о фильме:
Название: Тем, кто был незащищён
Оригинальное название: Mamorarenakatta Monotachi e / In the Wake
Год выхода: 2021
Жанр: Детектив, криминал, драма
Режиссер: Такахиса Дзэдзэ
В ролях: Такэру Сато, Хироси Абэ, Кая Киёхара, Мицуко Байсё, Хидэтака Ёсиока, Кэнто Хаяси, Эйта, Наото Огата, Рё Ивамацу, Юдзи Миякэ

Описание: Спустя девять лет после землетрясения и цунами в Тохоку в 2011 году в Сендае, в префектуре Мияги, произошли два убийства. Предполагается, что обе жертвы были убиты одним и тем же человеком. Обе жертвы были связаны по всему телу и умерли от голода. Ясухиса Тон фигурирует в качестве подозреваемого в убийствах. Ясухиса совсем недавно был освобожден из тюрьмы. В прошлом он совершил поджог и ранил кого-то, чтобы защитить своего знакомого. Детектив Сейитиро Томашино обнаруживает общую связь между двумя жертвами и преследует Ясухису.



Страна: Япония
Студия: Aeon Entertainment, Amuse, Kinoshita Group, NHK Shuppan, Shochiku Broadcasting Co., Tohan Kikaku
Продолжительность: 02:14:48
Перевод: Авторский (одноголосый, закадровый) - А. Смирнов



Информация о файле:
Кодек: AVC
Формат: MKV
Качество: HDRip-AVC
Видео: MPEG-4 AVC, 1024x428, 23.976 fps, 2090 kbps
Аудио RU: AC3, 6 ch, 48 kHz, 384 kbps
Субтитры: Английские



x264 info: frame I:1366 Avg QP:13.68 size: 58135
x264 info: frame P:38464 Avg QP:14.88 size: 24262
x264 info: frame B:154087 Avg QP:16.05 size: 6827
General
Unique ID : 179400399532151134696817339928743762860 (0x86F7429926AEACD34E5C1AFD2823DBAC)
Complete name : D:uTorrentРипы wolf1245In the Wake.2021.AVO.SMIRNOV.X264.HDRip-AVC.[wolf1245.ExKinoRay].mkv
Format : Matroska
Format version : Version 4
File size : 2.33 GiB
Duration : 2 h 14 min
Overall bit rate : 2 474 kb/s
Movie name : In the Wake.2021.AVO.SMIRNOV.X264.HDRip-AVC.[wolf1245.ExKinoRay]
Encoded date : UTC 2022-08-04 17:02:05
Writing application : mkvmerge v69.0.0 ('Day And Age') 64-bit
Writing library : libebml v1.4.2 + libmatroska v1.6.4
Video
ID : 1
Format : AVC
Format/Info : Advanced Video Codec
Format profile : [email protected]
Format settings : CABAC / 12 Ref Frames
Format settings, CABAC : Yes
Format settings, Reference frames : 12 frames
Codec ID : V_MPEG4/ISO/AVC
Duration : 2 h 14 min
Bit rate : 2 090 kb/s
Width : 1 024 pixels
Height : 428 pixels
Display aspect ratio : 2.40:1
Frame rate mode : Constant
Frame rate : 23.976 (24000/1001) FPS
Color space : YUV
Chroma subsampling : 4:2:0
Bit depth : 8 bits
Scan type : Progressive
Bits/(Pixel*Frame) : 0.199
Stream size : 1.97 GiB (84%)
Title : -=[wolf1245.ExKinoRay]=-
Writing library : x264 core 163 r3060 5db6aa6
Encoding settings : cabac=1 / ref=12 / deblock=1:-3:-2 / analyse=0x3:0x133 / me=umh / subme=11 / psy=1 / psy_rd=1.00:0.15 / mixed_ref=1 / me_range=32 / chroma_me=1 / trellis=2 / 8x8dct=1 / cqm=0 / deadzone=22,11 / fast_pskip=1 / chroma_qp_offset=-3 / threads=10 / lookahead_threads=2 / sliced_threads=0 / nr=0 / decimate=0 / interlaced=0 / bluray_compat=0 / constrained_intra=0 / bframes=12 / b_pyramid=2 / b_adapt=2 / b_bias=0 / direct=3 / weightb=1 / open_gop=0 / weightp=2 / keyint=240 / keyint_min=24 / scenecut=40 / intra_refresh=0 / rc_lookahead=150 / rc=2pass / mbtree=0 / bitrate=2090 / ratetol=1.0 / qcomp=0.75 / qpmin=0 / qpmax=69 / qpstep=4 / cplxblur=20.0 / qblur=0.5 / vbv_maxrate=50000 / vbv_bufsize=62500 / nal_hrd=none / filler=0 / ip_ratio=1.37 / pb_ratio=1.27 / aq=1:1.00
Language : Japanese
Default : Yes
Forced : No
Audio
ID : 2
Format : AC-3
Format/Info : Audio Coding 3
Commercial name : Dolby Digital
Codec ID : A_AC3
Duration : 2 h 14 min
Bit rate mode : Constant
Bit rate : 384 kb/s
Channel(s) : 6 channels
Channel layout : L R C LFE Ls Rs
Sampling rate : 48.0 kHz
Frame rate : 31.250 FPS (1536 SPF)
Compression mode : Lossy
Stream size : 370 MiB (16%)
Title : AVO | А. Смирнов | RUS
Language : Russian
Service kind : Complete Main
Default : Yes
Forced : No
Text
ID : 3
Format : UTF-8
Codec ID : S_TEXT/UTF8
Codec ID/Info : UTF-8 Plain Text
Duration : 2 h 9 min
Bit rate : 27 b/s
Count of elements : 1076
Stream size : 26.1 KiB (0%)
Language : English
Default : No
Forced : No
Menu
00:00:00.000 : :Chapter 01
00:19:29.919 : :Chapter 02
00:33:29.507 : :Chapter 03
00:52:40.532 : :Chapter 04
01:09:40.926 : :Chapter 05
01:25:06.184 : :Chapter 06
01:44:56.457 : :Chapter 07
02:03:00.415 : :Chapter 08
02:14:46.996 : :Chapter 09
Релиз от:
Автор релиза:
pb.wtf



Скачать Тем, кто был незащищён через торрент http://i120.fastpic.org/big/2022/0730/4e/bc298a9f646f0b68679825556583c34e.jpg Скачать, смотреть онлайн Тем, кто был незащищён бесплантно в хорошем качестве Описание: Спустя девять лет после землетрясения и цунами в Тохоку в 2011 году в Сендае, в префектуре Мияги, произошли два убийства. ... 10 10 1
Торрент: Зарегистрирован [2022-08-04 17:14] · скачан: 3 раз
Статус: √ проверено
Размер: 2.33 GB
Как cкачать? Как скачать Тем, кто был незащищён через торрент | UTorrent

28-11-2019 20:33  

Отключить вcю реклaмy на сайте

    Дорогой пользователь! Огромная просьба, поблагодарите релизера, оцените раздачу и оставьте свои комментарий, если Вы скачали Тем, кто был незащищён через торрент бесплатно!
    Комментировать посты могут только пользователи прошедшие не сложную регистрацию
    Показать сообщения:    

    Тем, кто был незащищён через торрент
    Скачать бесплатно Тем, кто был незащищён
    Тем, кто был незащищён скачать торрент
    Тем, кто был незащищён смотреть онлайн
    Cкачать фильм Тем, кто был незащищён бесплатно
    Тем, кто был незащищён скачать торрент в хорошем качестве
    Тем, кто был незащищён смотреть онлайн бесплатно в хорошем качестве


    Вы не можете начинать темы
    Вы не можете отвечать на сообщения
    Вы не можете редактировать свои сообщения
    Вы не можете удалять свои сообщения
    Вы не можете голосовать в опросах
    Вы не можете прикреплять файлы к сообщениям
    Вы можете скачивать файлы