Всегда рабочее зеркало без VPN и Proxy просто перед .vidak.icu напиши любое слово или цифру, Пример http://b3fn.vidak.icu

Лицензия

MVO

1 сезон

1

1 сезон

iTunes

1 сезон

13

1 сезон

Deluxe

pack

Рекомендуем

Repack

30

ВАЖНО

RePack

MK11

RePack

jed

RePack

fifa19

RePack

RDR2

RePack

NEED FOR SPEED™ PAYBACK

Кинопоиск HD

6 сезон

 Острые козырьки 6 сезон

Все сериалы

все сериалы на PB.wtf

RePack

FAR CRY 5
  
Magnet ссылка

Удача / Luck (Пегги Холмс) [2022, Мультфильм, фэнтези, комедия, приключения, семейный, WEB-DLRip-AVC] DUB [Невафильм] pb.wtf

Удача через торрент pb.wtf

Раздают: 12 [ 287 KB/s ]
Размер: 2.24 GB | Добавлен: 12 д. назад | Торрент скачан:136 раз
Смотреть онлайн Удача | Скачать    Ребята, помогите собрать деньги на оплату серверов!!!

06-08-2022 05:40 Удача Скачать торрент  

Удача
Luck

Год выпуска: 2022
Страна: США, Испания
Студия: Apple Original Films, Ilion Animation Studios, Paramount Pictures, Skydance Animation, Skydance Productions
Жанр: Мультфильм, фэнтези, комедия, приключения, семейный
Продолжительность: 01:45:24
Перевод: Профессиональный (полное дублирование) | Невафильм
Субтитры: Русские (Forced, Full, SDH), английские (Full, SDH), иврит, украинские

Режиссер: Пегги Холмс

rating

В ролях: Эва Ноблесада, Саймон Пегг, Джейн Фонда, Вупи Голдберг, Флула Борг, Лил Рел Ховери, Колин О’Донохью, Джон Ратценбергер, Аделин Спун

Описание: Сэм Гринфилд — самая невезучая девочка в мире. Внезапно оказавшись в волшебной Стране Удачи, она объединяется с населяющими её существами, чтобы вернуть себе удачу.

Качество: WEB-DLRip-AVC
Формат: MKV

Видео: AVC, 1920x1038 (1.85:1), 23.976 fps, ~9882 kbps
Аудио №1: 48 kHz, AC3 Dolby Digital, 3/2 (L, C, R, l, r) + LFE ch, ~448 Kbps
Аудио №2: 48 kHz, AC3 Dolby Digital, 3/2 (L, C, R, l, r) + LFE ch, ~448 Kbps
скриншот  скриншот  скриншот  скриншот  скриншот  

x264 [info]: frame I:1527 Avg QP:16.21 size: 84514
x264 [info]: frame P:33330 Avg QP:17.93 size: 23964
x264 [info]: frame B:116772 Avg QP:18.59 size: 6592

General
Unique ID : 78109875184266071419101858537545718179 (0x3AC36A2D8351BE9002E89E335CCCD9A3)
Complete name : D:Luck.2022.WEB-DLRip.x264.seleZen.mkv
Format : Matroska
Format version : Version 4
File size : 2.24 GiB
Duration : 1 h 45 min
Overall bit rate : 3 047 kb/s
Movie name : Luck.2022.WEB-DLRip.x264.seleZen
Encoded date : UTC 2022-08-05 10:47:57
Writing application : mkvmerge v63.0.0 ('Everything') 64-bit
Writing library : libebml v1.4.2 + libmatroska v1.6.4
Cover : Yes
Attachments : cover.jpg / small_cover.jpg

Video
ID : 1
Format : AVC
Format/Info : Advanced Video Codec
Format profile : [email protected]
Format settings : CABAC / 12 Ref Frames
Format settings, CABAC : Yes
Format settings, Reference : 12 frames
Codec ID : V_MPEG4/ISO/AVC
Duration : 1 h 45 min
Bit rate : 2 147 kb/s
Width : 1 024 pixels
Height : 554 pixels
Display aspect ratio : 1.85:1
Frame rate mode : Constant
Frame rate : 23.976 (24000/1001) FPS
Color space : YUV
Chroma subsampling : 4:2:0
Bit depth : 8 bits
Scan type : Progressive
Bits/(Pixel*Frame) : 0.158
Stream size : 1.58 GiB (70%)
Title : -=DoMiNo=-
Writing library : x264 core 164 by -=DoMiNo=-
Encoding settings : cabac=1 / ref=12 / deblock=1:-3:-3 / analyse=0x3:0x133 / me=umh / subme=10 / psy=1 / psy_rd=1.07:0.20 / mixed_ref=1 / me_range=32 / chroma_me=1 / trellis=2 / 8x8dct=1 / cqm=0 / deadzone=21,11 / fast_pskip=0 / chroma_qp_offset=-3 / threads=17 / lookahead_threads=2 / sliced_threads=0 / nr=0 / decimate=0 / interlaced=0 / bluray_compat=0 / constrained_intra=0 / bframes=9 / b_pyramid=2 / b_adapt=2 / b_bias=0 / direct=1 / weightb=1 / open_gop=0 / weightp=2 / keyint=250 / keyint_min=23 / scenecut=40 / intra_refresh=0 / rc_lookahead=60 / rc=crf / mbtree=0 / crf=19.0 / qcomp=0.65 / qpmin=0 / qpmax=69 / qpstep=4 / vbv_maxrate=50000 / vbv_bufsize=62500 / crf_max=0.0 / nal_hrd=none / filler=0 / ip_ratio=1.30 / pb_ratio=1.20 / aq=2:1.20
Language : English
Default : Yes
Forced : No

Audio #1
ID : 2
Format : AC-3
Format/Info : Audio Coding 3
Commercial name : Dolby Digital
Codec ID : A_AC3
Duration : 1 h 45 min
Bit rate mode : Constant
Bit rate : 448 kb/s
Channel(s) : 6 channels
Channel layout : L R C LFE Ls Rs
Sampling rate : 48.0 kHz
Frame rate : 31.250 FPS (1536 SPF)
Compression mode : Lossy
Stream size : 338 MiB (15%)
Title : DUB
Language : Russian
Service kind : Complete Main
Default : Yes
Forced : Yes

Audio #2
ID : 3
Format : AC-3
Format/Info : Audio Coding 3
Commercial name : Dolby Digital
Codec ID : A_AC3
Duration : 1 h 45 min
Bit rate mode : Constant
Bit rate : 448 kb/s
Channel(s) : 6 channels
Channel layout : L R C LFE Ls Rs
Sampling rate : 48.0 kHz
Frame rate : 31.250 FPS (1536 SPF)
Compression mode : Lossy
Stream size : 338 MiB (15%)
Title : Original
Language : English
Service kind : Complete Main
Default : No
Forced : No

Text #1
ID : 4
Format : UTF-8
Codec ID : S_TEXT/UTF8
Codec ID/Info : UTF-8 Plain Text
Duration : 1 h 36 min
Bit rate : 4 b/s
Count of elements : 65
Stream size : 3.39 KiB (0%)
Title : Forced
Language : Russian
Default : Yes
Forced : No

Text #2
ID : 5
Format : UTF-8
Codec ID : S_TEXT/UTF8
Codec ID/Info : UTF-8 Plain Text
Duration : 1 h 44 min
Bit rate : 103 b/s
Count of elements : 1401
Stream size : 78.9 KiB (0%)
Title : Full
Language : Russian
Default : No
Forced : No

Text #3
ID : 6
Format : UTF-8
Codec ID : S_TEXT/UTF8
Codec ID/Info : UTF-8 Plain Text
Duration : 1 h 36 min
Bit rate : 126 b/s
Count of elements : 1626
Stream size : 88.7 KiB (0%)
Title : SDH
Language : Russian
Default : No
Forced : No

Text #4
ID : 7
Format : UTF-8
Codec ID : S_TEXT/UTF8
Codec ID/Info : UTF-8 Plain Text
Duration : 1 h 35 min
Bit rate : 69 b/s
Count of elements : 1371
Stream size : 48.8 KiB (0%)
Title : Full
Language : English
Default : No
Forced : No

Text #5
ID : 8
Format : UTF-8
Codec ID : S_TEXT/UTF8
Codec ID/Info : UTF-8 Plain Text
Duration : 1 h 36 min
Bit rate : 78 b/s
Count of elements : 1616
Stream size : 55.5 KiB (0%)
Title : SDH
Language : English
Default : No
Forced : No

Text #6
ID : 9
Format : UTF-8
Codec ID : S_TEXT/UTF8
Codec ID/Info : UTF-8 Plain Text
Duration : 1 h 44 min
Bit rate : 87 b/s
Count of elements : 1401
Stream size : 66.5 KiB (0%)
Title : Full
Language : Hebrew
Default : No
Forced : No

Text #7
ID : 10
Format : UTF-8
Codec ID : S_TEXT/UTF8
Codec ID/Info : UTF-8 Plain Text
Duration : 1 h 44 min
Bit rate : 102 b/s
Count of elements : 1404
Stream size : 78.2 KiB (0%)
Title : Full
Language : Ukrainian
Default : No
Forced : No

pb.wtf



Скачать Удача через торрент https://i120.fastpic.org/big/2022/0805/cc/4c794ccb890ce12d18a2e4163d3eb5cc.jpg Скачать, смотреть онлайн Удача бесплантно в хорошем качестве Описание: Сэм Гринфилд — самая невезучая девочка в мире. Внезапно оказавшись в волшебной Стране Удачи, она объединяется с населяющими её ... 10 10 6
Торрент: Зарегистрирован [2022-08-06 05:40] · скачан: 136 раз
Статус: √ проверено
Размер: 2.24 GB
Как cкачать? Как скачать Удача через торрент | UTorrent

% Раздел Тема Автор DL S | L
Мультфильмы (48-60 fps) [ 4.4 GB ] Удача / Luck [2022 мультфильм WEB-DLRip 720p / 60 FPS ] от R.G. HD-Films slaventi-69 Скачать
24 | 1
Зарубежные Мультфильмы (WEB-DL 720p, 1080p) [ 8.97 GB ] Удача / Luck [2022 Мультфильм WEB-DL 1080p] DUB [Невафильм] bober100 Скачать
17 | 0
Иностранные мультфильмы [ 1.46 GB ] Удача / Luck [2022 Мультфильм WEB-DLRip] DUB [Невафильм] bober100 Скачать
17 | 0
Фильмы 2017 [DVDrip, WEB-DLRip, HDrip] (DUB, MVO) [ 2.18 GB ] Удача Логана / Logan Lucky [2017 BDRip] [Rus Transfer] DUB [ BD RUS] bober100 Скачать
1 | 0
Фильмы [HD 720p, 1080p] (Хороший звук DUB, MVO) [ 8.7 GB ] Поцелуй на удачу / Just My Luck [2006 BDRip-HEVC 1080p] DUB + 2хDVO RealOldGamer Скачать
1 | 0
Фильмы до 2000 г. [ 1.48 GB ] Город удачи / Luckytown [2000 WEB-DLRip] [DVO] killermax2013 Скачать
1 | 0
Фильмы 2017 [DVDrip, WEB-DLRip, HDrip] (DUB, MVO) [ 2.09 GB ] Удача Логана / Logan Lucky [2017 BDRip-AVC] DUB [] bober100 Скачать
1 | 0

28-11-2019 20:33  

Отключить вcю реклaмy на сайте

    Дорогой пользователь! Огромная просьба, поблагодарите релизера, оцените раздачу и оставьте свои комментарий, если Вы скачали Удача через торрент бесплатно!
    Комментировать посты могут только пользователи прошедшие не сложную регистрацию
    Показать сообщения:    

    Удача через торрент
    Скачать бесплатно Удача
    Удача скачать торрент
    Удача смотреть онлайн
    Cкачать фильм Удача бесплатно
    Удача скачать торрент в хорошем качестве
    Удача смотреть онлайн бесплатно в хорошем качестве


    Вы не можете начинать темы
    Вы не можете отвечать на сообщения
    Вы не можете редактировать свои сообщения
    Вы не можете удалять свои сообщения
    Вы не можете голосовать в опросах
    Вы не можете прикреплять файлы к сообщениям
    Вы можете скачивать файлы