Достать ножи: Стеклянная луковица

MVO

Добыча

Дубляж

Уэнсдэй

1 сезон

Тор

Дубляж

13 клиническая

1 сезон

Жестокая ночь

MVO

Одни из нас

1 сезон

Deluxe

pack

Рекомендуем

30

Пиратка

ВАЖНО

ВАЖНО

Ghostwire

Пиратка

jed

RePack

nioh2

RePack

RDR2

RePack

NEED FOR SPEED™ PAYBACK

RePack

скачать торрент

Кинопоиск HD

Острые козырьки 6 сезон

6 сезон

FAR CRY 6

RePack

скачать торрент

Лицензия

скачать торрент

MVO

1

1 сезон

скачать торрент

1 сезон

скачать торрент

Лицензия

  

Добыча / Prey (Дэн Трахтенберг) [2022 г., Ужасы, фантастика, боевик, WEB-DLRip 720p / 60 FPS, Профессиональный (многоголосый)] от R.G. HD-Films

Добыча через торрент pb.wtf

Раздают: 4 [ 0 KB/s ] Качают: 1 [ 0 KB/s ]
Размер: 3.44 GB | Добавлен: 6 мес. назад | Торрент скачан:873 раза
Смотреть онлайн | Скачать | Поддержите нас   

06-08-2022 07:47 Добыча Скачать торрент  

Добыча / Prey
Год выпуска: 2022
Страна: США
Жанр: Ужасы, фантастика, боевик
Продолжительность: 01:39:29
Перевод: Профессиональный (многоголосый, закадровый) | NewComers
Субтитры: русские, английские

Режиссер: Дэн Трахтенберг

rating

В ролях: Эмбер Мидфандер, Дэйн Дильегро, Харлан Блейн Китвейхат, Дакота Биверс, Джеронимо Вела, Стефани Матиас, Сторми Кипп, Майк Патерсон, Джулиан Шэмп, Нельсон Картер Лейс и другие.

Описание: Женщина-воин Нару пытается защитить свое племя от одного из первых высокоразвитых Хищников, высадившихся на Земле.

Качество: WEB-DLRip 720p / 60 FPS
Формат: MKV
Видео кодек: H.264
Аудио кодек: AC3
Видео: x264, 1280 x 536 ( 2,40:1 ), 4567 kbps, 60,000 fps, ( 0.111 bpp)
Аудио#1: Русский, AC-3, 48.0 KHz, 6 ch, 384 Kbps MVO ( NewComers )
Релиз от: Автор рипа: slaventi-69
x264 [info]: using cpu capabilities: MMX2 SSE2Fast SSSE3 SSE4.2 AVX AVX2 FMA3 LZCNT BMI1 BMI2
x264 [info]: profile High, level 4.1

x264 [info]: frame I:1427 Avg QP:14.59 size: 76898
x264 [info]: frame P:83184 Avg QP:15.96 size: 19670
x264 [info]: frame B:273570 Avg QP:18.49 size: 6076
x264 [info]: consecutive B-frames: 2.4% 2.2% 6.7% 18.9% 47.1% 22.8%


Общее
Уникальный идентификатор : 209181742660939976814138912839504591748 (0x9D5EF02DF082219BF0C90DD802617B84)
Полное имя : G:\60 FPS\Prey.(2022).WEB-DLRip.720p.(60 Fps).mkv
Формат : Matroska
Версия формата : Version 4
Размер файла : 3,44 Гбайт
Продолжительность : 1 ч. 39 м.
Общий поток : 4955 Кбит/сек
Название фильма : Добыча / Prey (2022) WEB-DLRip 720p (60 Fps)
Дата кодирования : UTC 2022-08-06 07:12:18
Программа кодирования : mkvmerge v69.0.0 ('Day And Age') 64-bit
Библиотека кодирования : libebml v1.4.2 + libmatroska v1.6.4

Видео
Идентификатор : 1
Формат : AVC
Формат/Информация : Advanced Video Codec
Профиль формата : [email protected]
Настройки формата : CABAC / 9 Ref Frames
Параметр CABAC формата : Да
Параметр RefFrames формата : 9 кадров
Идентификатор кодека : V_MPEG4/ISO/AVC
Продолжительность : 1 ч. 39 м.
Битрейт : 4567 Кбит/сек
Ширина : 1280 пикселей
Высота : 536 пикселей
Соотношение сторон : 2,40:1
Режим частоты кадров : Постоянный
Частота кадров : 60,000 кадров/сек
Цветовое пространство : YUV
Субдискретизация насыщенности : 4:2:0
Битовая глубина : 8 бит
Тип развёртки : Прогрессивная
Бит/(Пиксели*Кадры) : 0.111
Размер потока : 3,17 Гбайт (92%)
Заголовок : slaventi-69 ( R.G. HD-Films | 60 fps )
Библиотека кодирования : x264 core 130 r2273 b3065e6
Настройки программы : cabac=1 / ref=9 / deblock=1:-2:-2 / analyse=0x3:0x133 / me=umh / subme=9 / psy=1 / psy_rd=1.00:0.00 / mixed_ref=1 / me_range=32 / chroma_me=1 / trellis=2 / 8x8dct=1 / cqm=0 / deadzone=21,11 / fast_pskip=0 / chroma_qp_offset=-2 / threads=8 / lookahead_threads=4 / sliced_threads=0 / nr=0 / decimate=1 / interlaced=0 / bluray_compat=0 / constrained_intra=0 / bframes=5 / b_pyramid=2 / b_adapt=2 / b_bias=0 / direct=2 / weightb=1 / open_gop=0 / weightp=2 / keyint=600 / keyint_min=23 / scenecut=40 / intra_refresh=0 / rc=crf / mbtree=0 / crf=16.0 / qcomp=0.60 / qpmin=0 / qpmax=69 / qpstep=4 / ip_ratio=1.40 / pb_ratio=1.30 / aq=1:1.00
Язык : English
Default : Да
Forced : Нет

Аудио
Идентификатор : 2
Формат : AC-3
Формат/Информация : Audio Coding 3
Коммерческое название : Dolby Digital
Идентификатор кодека : A_AC3
Продолжительность : 1 ч. 39 м.
Вид битрейта : Постоянный
Битрейт : 384 Кбит/сек
Каналы : 6 каналов
Channel layout : L R C LFE Ls Rs
Частота : 48,0 КГц
Частота кадров : 31,250 кадров/сек (1536 SPF)
Битовая глубина : 16 бит
Метод сжатия : С потерями
Размер потока : 273 Мбайт (8%)
Заголовок : MVO ( NewComers )
Язык : Russian
ServiceKind/String : Complete Main
Default : Да
Forced : Нет

Текст #1
Идентификатор : 3
Формат : UTF-8
Идентификатор кодека : S_TEXT/UTF8
Идентификатор кодека/Информация : UTF-8 Plain Text
Продолжительность : 1 ч. 28 м.
Битрейт : 23 бит/сек
ElementCount : 359
Размер потока : 15,6 Кбайт (0%)
Заголовок : Полные
Язык : Russian
Default : Нет
Forced : Нет

Текст #2
Идентификатор : 4
Формат : UTF-8
Идентификатор кодека : S_TEXT/UTF8
Идентификатор кодека/Информация : UTF-8 Plain Text
Продолжительность : 1 ч. 28 м.
Битрейт : 15 бит/сек
ElementCount : 381
Размер потока : 9,78 Кбайт (0%)
Язык : English
Default : Нет
Forced : Нет

Просьба к переливающим на другие сайты, в оформлении указывайте пожалуйста авторство группы R.G. HD-Films



Скачать Добыча через торрент https://i120.fastpic.org/big/2022/0805/37/73aaec3192c5f30089bad1187f882137.jpg Скачать, смотреть онлайн Добыча бесплантно в хорошем качестве Описание: Женщина-воин Нару пытается защитить свое племя от одного из первых высокоразвитых Хищников, высадившихся на ... 9.6 10 37
Info! Золотая раздача, скачанное не засчитывается.
Торрент: Зарегистрирован [2022-08-06 07:47] · скачан: 873 раз
Статус: √ проверено
Размер: 3.44 GB
Как cкачать? Как скачать Добыча через торрент | UTorrent

% Раздел Тема Автор DL S | L
Ultra HD (UHD: 2K, 4K, 8K) [ 12.48 GB ] Добыча / Prey | Jaskier | 2160p bober100 Скачать
15 | 0
Фильмы 2022-2023 [DVDrip, WEB-DLRip, HDrip] (DUB, MVO) [ 1.91 GB ] Добыча / Prey | NewComers | DLRip-AVC Lithuania Скачать
7 | 0
Фильмы 2022-2023 [DVDrip, WEB-DLRip, HDrip] (DUB, MVO) [ 1.76 GB ] Добыча / Prey | DUB | DLRip-AVC bober100 Скачать
9 | 0
Фильмы (WEB-DL 720p, 1080p) [ 5.02 GB ] Добыча / Prey | DUB | 1080p bober100 Скачать
5 | 0
Фильмы (WEB-DL 720p, 1080p) [ 5.68 GB ] Добыча / Prey | Jaskier | 1080p bober100 Скачать
12 | 0
Фильмы 2022-2023 [DVDrip, WEB-DLRip, HDrip] (DUB, MVO) [ 1.46 GB ] Добыча / Prey | NewComers | DLRip MVO jump88 Скачать
5 | 0
Фильмы 2022-2023 [DVDrip, WEB-DLRip, HDrip] (DUB, MVO) [ 1.46 GB ] Добыча / Prey | NewComers | WEBRip-AVC bober100 Скачать
6 | 1

28-11-2019 20:33  


Отключить вcю реклaмy на сайте, в т.ч. и в плеере онлайн просмотра!

06-08-2022 13:09 Добыча Скачать торрент  

Сильная независимая женщина против инопланетного охотника



07-08-2022 10:21 Добыча Скачать торрент  

sir_medvedius писал(а):

Сильная независимая женщина против инопланетного охотника

Фильмы и сериалы сейчас кишат образом сильной женщины! Идет смена парадигм... женщины становятся сильными, а мужчины слабыми.



07-08-2022 11:53 Добыча Скачать торрент  

HAPKOMAH писал(а):

sir_medvedius писал(а):

Сильная независимая женщина против инопланетного охотника

Фильмы и сериалы сейчас кишат образом сильной женщины! Идет смена парадигм... женщины становятся сильными, а мужчины слабыми.

Да это вполне ясно, но смотрится комично, особенно, когда воинственная чудо-женщина охотится на 300-киллограммового медведя, вы вдумайтесь, с луком) сила натяжения какая должна быть, чтоб хоть какой-то урон ему нанести, ну не смешно ли?) Хотя я смотрел не придираясь и смотрится, надо сказать,- бодро.



07-08-2022 14:29 Добыча Скачать торрент  

HAPKOMAH писал(а):

sir_medvedius писал(а):

Сильная независимая женщина против инопланетного охотника

Фильмы и сериалы сейчас кишат образом сильной женщины! Идет смена парадигм... женщины становятся сильными, а мужчины слабыми.

Справедливости ради, брат ее куда лучше воин был, просто пожертвовал собой что бы спасти ее.



07-08-2022 15:42 Добыча Скачать торрент  

не знаю как кому, а мне конкретно не хватало всегдашней музыки хищника с барабанчиками и кряхтением. да и зачем лицо Хищнику поменяли, как по мне раньше намного лучше смотрелся, плюс пальцы сардельки с маникоюром где спрашивается длинные пальцы с когтями,о но по сравнению с последней частью где команда фриков то фильм норм, честно ожидал намного худшего. если смотреть и не вдумываться то фильм норм, а про пасхалку с пистолетом я так понимаю что потом прилител другой хищник и все таки вырезал всех апачи.
И таки еще не хватало эпичных драк, могли бы драку с медведем по веселее сделать, и как то жести и крови мало такое впечатление что фильм делали для 8+



11-08-2022 16:05 Добыча Скачать торрент  

ГДЕ ФИЛЬМ?



14-08-2022 20:50 Добыча Скачать торрент  

Ну что за боевка ( авторы фильма контр страйка что ли переиграли. Ну что за шлаковые фильмы пошли ((



20-09-2022 09:50 Добыча Скачать торрент  

rerek писал(а):

снимал трахтенберг.по заказу фемок.забавный коммент про сильных женщин). такая мысль может возникнуть только от тырнетом убитого дрища. покажи мне сильную женщину. все о ней говорят но никто не видел. мужикоподобные есть,с мужским характером-тоже. сильных и выглядевших как женщины-не видел.и это правильно.так устроено и не надо пытаться переиначить. написашему коммент советую отрубить атрибут и запихать матку в зад.авось научишься рожать,Михалыч))

Вот он, злобный на всё и вся человек, не понимающий иронии) мне тебя жаль...



    Дорогой пользователь! Огромная просьба, поблагодарите релизера, оцените раздачу и оставьте свои комментарий, если Вы скачали Добыча через торрент бесплатно!!
    Комментировать посты могут только пользователи прошедшие не сложную регистрацию
    Показать сообщения:    


    Добыча через торрент
    Скачать бесплатно Добыча
    Добыча скачать торрент
    Добыча смотреть онлайн
    Cкачать фильм Добыча бесплатно
    Добыча скачать торрент в хорошем качестве
    Добыча смотреть онлайн бесплатно в хорошем качестве
    Вы не можете начинать темы
    Вы не можете отвечать на сообщения
    Вы не можете редактировать свои сообщения
    Вы не можете удалять свои сообщения
    Вы не можете голосовать в опросах
    Вы не можете прикреплять файлы к сообщениям
    Вы можете скачивать файлы
    Добыча / Prey [2022 г., Ужасы, фантастика, боевик, WEB-DLRip 720p / 60 FPS, Профессиональный ] от R.G. HD-Films смотреть онлайн, скачать торрент picoco.icu