Доктор Стрэндж

Лицензия

Добыча

Дубляж

Дом дракона

1 сезон

Тор

Дубляж

В эфире

Дубляж

Там, где раки поют

MVO

Властелин колец

1 сезон

Deluxe

pack

Рекомендуем

30

Пиратка

ВАЖНО

ВАЖНО

Ghostwire

Пиратка

jed

RePack

nioh2

RePack

RDR2

RePack

NEED FOR SPEED™ PAYBACK

RePack

скачать торрент

Кинопоиск HD

Острые козырьки 6 сезон

6 сезон

FAR CRY 6

RePack

скачать торрент

Лицензия

скачать торрент

MVO

1

1 сезон

скачать торрент

1 сезон

скачать торрент

Лицензия

  

Малефисента 3D/ Maleficent 3D (Роберт Стромберг) [2014 г., фэнтези, семейный, мелодрама, приключения, 3D BDRip 1080p, Дубляж] Анаглиф (Дюбуа) от R.G. HD-Films

Малефисента 3D через торрент pb.wtf

Размер: 5.45 GB | Добавлен: 3 мес. 27 д. назад | Торрент скачан:1 раз
Смотреть онлайн | Скачать   

06-08-2022 12:37 Малефисента 3D Скачать торрент  

Малефисента / Maleficent
Год выпуска: 2014
Страна: США, Великобритания
Жанр: фэнтези, семейный, мелодрама, приключения
Продолжительность: 01:37:28
Перевод: Дубляж, Лицензия
Субтитры: Russian, English SDN

Режиссер: Роберт Стромберг
Продюссер: Джо Рот, Сара Брэдшоу, Дон Хан
Сценарий: Линда Вулвертон, Джо Ринальди, Уинстон Хиблер

Бюджет: $180 000 000
Премьера в мире: 28 мая 2014

rating

В ролях: Анджелина Джоли, Эль Фаннинг, Шарлто Копли, Лесли Мэнвилл, Имелда Стонтон, Джуно Темпл, Сэм Райли, Брентон Туэйтс, Кеннет Крэнэм, Сара Флинд

Описание: Юная волшебница Малефисента вела уединенную жизнь в зачарованном лесу, окруженная сказочными существами, но однажды все изменилось… В её мир вторглись люди, которые принесли с собой разрушение и хаос, и Малефисенте пришлось встать на защиту своих подданных, призвав на помощь могущественные тёмные силы. В пылу борьбы Малефисента наложила страшное заклятие на новорожденную дочь короля, прекрасную Аврору. Но, наблюдая за тем, как растет маленькая принцесса, Малефисента начинает сомневаться в правильности своего поступка — ведь, возможно, именно Аврора может вдохнуть новую жизнь в волшебное лесное царство.

Доп. информация: Формат 3D: Анаглиф (Дюбуа)



Качество: 3D BDRip 1080p
Формат: MKV
Видео кодек: H.264
Аудио кодек: AC3
Видео: x264, 1920 x 1080 (16:9), 6719 kbps, 23,976 fps, ( 0.135 bpp)
Аудио#1: Русский / AC3 / 48 KHz / 5.1 ch / 640 Kbps (Дубляж - BD 3D Eur)
Аудио#2: Английский / AC3 / 48 KHz / 5.1 ch / 640 Kbps (Original - BD 3D Eur)
Релиз от: Автор рипа: slaventi-69
x264 [info]: using cpu capabilities: MMX2 SSE2Fast SSSE3 SSE4.2 AVX AVX2 FMA3 LZCNT BMI1 BMI2
x264 [info]: profile High, level 4.1

x264 [info]: frame I:1205 Avg QP:12.45 size:185597
x264 [info]: frame P:38889 Avg QP:13.69 size: 62962
x264 [info]: frame B:100121 Avg QP:15.96 size: 22369
x264 [info]: consecutive B-frames: 3.9% 6.0% 14.3% 36.3% 39.6%


Общее
Уникальный идентификатор : 121125965565488379495455862648149977825 (0x5B20032D77D99D6C42B737D73A952AE1)
Полное имя : G:\60 FPS\Maleficent.(2014).3D.(Anaglyph_Dubois).mkv
Формат : Matroska
Версия формата : Version 4
Размер файла : 5,45 Гбайт
Продолжительность : 1 ч. 37 м.
Общий поток : 8001 Кбит/сек
Название фильма : Малефисента / Maleficent (2014) 3D (Anaglyph_Dubois)
Дата кодирования : UTC 2022-08-06 11:10:21
Программа кодирования : mkvmerge v69.0.0 ('Day And Age') 64-bit
Библиотека кодирования : libebml v1.4.2 + libmatroska v1.6.4

Видео
Идентификатор : 1
Формат : AVC
Формат/Информация : Advanced Video Codec
Профиль формата : [email protected]
MultiView_Count : 2
MultiView_Layout : Anaglyph (cyan/red)
Настройки формата : CABAC / 4 Ref Frames
Параметр CABAC формата : Да
Параметр RefFrames формата : 4 кадра
Идентификатор кодека : V_MPEG4/ISO/AVC
Продолжительность : 1 ч. 37 м.
Битрейт : 6719 Кбит/сек
Ширина : 1920 пикселей
Высота : 1080 пикселей
Соотношение сторон : 16:9
Режим частоты кадров : Постоянный
Частота кадров : 23,976 (24000/1001) кадра/сек
Цветовое пространство : YUV
Субдискретизация насыщенности : 4:2:0
Битовая глубина : 8 бит
Тип развёртки : Прогрессивная
Бит/(Пиксели*Кадры) : 0.135
Размер потока : 4,57 Гбайт (84%)
Заголовок : slaventi-69 ( R.G. HD-Films ) 3Д (Anaglyph_Dubois)
Библиотека кодирования : x264 core 130 r2273 b3065e6
Настройки программы : cabac=1 / ref=4 / deblock=1:-3:-3 / analyse=0x3:0x133 / me=umh / subme=9 / psy=1 / psy_rd=1.00:0.00 / mixed_ref=1 / me_range=32 / chroma_me=1 / trellis=2 / 8x8dct=1 / cqm=0 / deadzone=21,11 / fast_pskip=0 / chroma_qp_offset=-2 / threads=8 / lookahead_threads=4 / sliced_threads=0 / nr=0 / decimate=1 / interlaced=0 / bluray_compat=0 / constrained_intra=0 / bframes=4 / b_pyramid=2 / b_adapt=2 / b_bias=0 / direct=2 / weightb=1 / open_gop=0 / weightp=2 / keyint=600 / keyint_min=23 / scenecut=40 / intra_refresh=0 / rc=crf / mbtree=0 / crf=19.5 / qcomp=0.60 / qpmin=0 / qpmax=69 / qpstep=4 / ip_ratio=1.40 / pb_ratio=1.30 / aq=1:1.00
Язык : English
Default : Да
Forced : Нет

Аудио #1
Идентификатор : 2
Формат : AC-3
Формат/Информация : Audio Coding 3
Коммерческое название : Dolby Digital
Идентификатор кодека : A_AC3
Продолжительность : 1 ч. 37 м.
Вид битрейта : Постоянный
Битрейт : 640 Кбит/сек
Каналы : 6 каналов
Channel layout : L R C LFE Ls Rs
Частота : 48,0 КГц
Частота кадров : 31,250 кадров/сек (1536 SPF)
Битовая глубина : 16 бит
Метод сжатия : С потерями
Размер потока : 446 Мбайт (8%)
Заголовок : Дубляж - BD 3D Eur
Язык : Russian
ServiceKind/String : Complete Main
Default : Да
Forced : Нет

Аудио #2
Идентификатор : 3
Формат : AC-3
Формат/Информация : Audio Coding 3
Коммерческое название : Dolby Digital
Идентификатор кодека : A_AC3
Продолжительность : 1 ч. 37 м.
Вид битрейта : Постоянный
Битрейт : 640 Кбит/сек
Каналы : 6 каналов
Channel layout : L R C LFE Ls Rs
Частота : 48,0 КГц
Частота кадров : 31,250 кадров/сек (1536 SPF)
Битовая глубина : 16 бит
Метод сжатия : С потерями
Размер потока : 446 Мбайт (8%)
Заголовок : Original - BD 3D Eur
Язык : English
ServiceKind/String : Complete Main
Default : Нет
Forced : Нет

Текст #1
Идентификатор : 4
Формат : UTF-8
Идентификатор кодека : S_TEXT/UTF8
Идентификатор кодека/Информация : UTF-8 Plain Text
Продолжительность : 1 ч. 29 м.
Битрейт : 47 бит/сек
ElementCount : 736
Размер потока : 30,9 Кбайт (0%)
Заголовок : Full
Язык : Russian
Default : Нет
Forced : Нет

Текст #2
Идентификатор : 5
Формат : UTF-8
Идентификатор кодека : S_TEXT/UTF8
Идентификатор кодека/Информация : UTF-8 Plain Text
Продолжительность : 1 ч. 30 м.
Битрейт : 35 бит/сек
ElementCount : 1032
Размер потока : 23,7 Кбайт (0%)
Заголовок : SDN
Язык : English
Default : Нет
Forced : Нет

Меню
00:00:00.000 : :1
00:03:00.597 : :2
00:08:10.949 : :3
00:14:00.757 : :4
00:19:10.608 : :5
00:25:59.057 : :6
00:33:09.738 : :7
00:38:30.808 : :8
00:43:21.140 : :9
00:46:56.105 : :10
00:51:11.944 : :11
00:54:18.797 : :12
00:58:37.723 : :13
01:01:58.048 : :14
01:05:09.989 : :15
01:09:56.776 : :16
01:15:40.619 : :17
01:17:43.659 : :18
01:25:44.931 : :19
01:28:38.647 : :20

Просьба к переливающим на другие сайты, в оформлении указывайте пожалуйста авторство группы R.G. HD-Films



Скачать Малефисента 3D через торрент http://i64.fastpic.ru/big/2014/0913/61/1eb0a2a82a2bc8e56b2a7db83ddb8261.png Скачать, смотреть онлайн Малефисента 3D бесплантно в хорошем качестве Описание: Юная волшебница Малефисента вела уединенную жизнь в зачарованном лесу, окруженная сказочными существами, но однажды все ... 5 10 1
Торрент: Зарегистрирован [2022-08-06 12:37] · скачан: 1 раз
Статус: √ проверено
Размер: 5.45 GB
Как cкачать? Как скачать Малефисента 3D через торрент | UTorrent

28-11-2019 20:33  


Отключить вcю реклaмy на сайте, в т.ч. и в плеере онлайн просмотра!

    Дорогой пользователь! Огромная просьба, поблагодарите релизера, оцените раздачу и оставьте свои комментарий, если Вы скачали Малефисента 3D через торрент бесплатно!!
    Комментировать посты могут только пользователи прошедшие не сложную регистрацию
    Показать сообщения:    


    Малефисента 3D через торрент
    Скачать бесплатно Малефисента 3D
    Малефисента 3D скачать торрент
    Малефисента 3D смотреть онлайн
    Cкачать фильм Малефисента 3D бесплатно
    Малефисента 3D скачать торрент в хорошем качестве
    Малефисента 3D смотреть онлайн бесплатно в хорошем качестве
    Вы не можете начинать темы
    Вы не можете отвечать на сообщения
    Вы не можете редактировать свои сообщения
    Вы не можете удалять свои сообщения
    Вы не можете голосовать в опросах
    Вы не можете прикреплять файлы к сообщениям
    Вы можете скачивать файлы
    Малефисента 3D/ Maleficent 3D [2014 г., фэнтези, семейный, мелодрама, приключения, 3D BDRip 1080p, Дубляж] Анаглиф от R.G. HD-Films смотреть онлайн, скачать торрент picoco.icu