Достать ножи: Стеклянная луковица

MVO

Добыча

Дубляж

Уэнсдэй

1 сезон

Тор

Дубляж

13 клиническая

1 сезон

Жестокая ночь

MVO

Одни из нас

1 сезон

Deluxe

pack

Рекомендуем

30

Пиратка

ВАЖНО

ВАЖНО

Ghostwire

Пиратка

jed

RePack

nioh2

RePack

RDR2

RePack

NEED FOR SPEED™ PAYBACK

RePack

скачать торрент

Кинопоиск HD

Острые козырьки 6 сезон

6 сезон

FAR CRY 6

RePack

скачать торрент

Лицензия

скачать торрент

MVO

1

1 сезон

скачать торрент

1 сезон

скачать торрент

Лицензия

  

Добыча / Prey (Дэн Трахтенберг) [2022, Ужасы, фантастика, боевик, WEB-DLRip-AVC] MVO [NewComers]

Добыча через торрент pb.wtf

Раздают: 13 [ 0.8 KB/s ] Качают: 1 [ 0 KB/s ]
Размер: 1.91 GB | Добавлен: 5 мес. 24 д. назад | Торрент скачан:815 раз
Смотреть онлайн | Скачать | Поддержите нас   

08-08-2022 19:24 Добыча Скачать торрент  


Добыча / Prey
Информация Описание:
Название: Добыча
Оригинальное название: Prey
Год выхода: 2022
Жанр: Ужасы, фантастика, боевик
Режиссер: Дэн Трахтенберг
В ролях: Эмбер Мидфандер, Дэйн Дильегро, Харлан Блейн Китвейхат, Дакота Биверс, Джеронимо Вела, Стефани Матиас, Сторми Кипп, Майк Патерсон, Джулиан Шэмп, Нельсон Картер Лейс и другие.

Описание: Женщина-воин Нару пытается защитить свое племя от одного из первых высокоразвитых Хищников, высадившихся на Земле.



Страна: США
Студия: 20th Century Studios, Davis Entertainment
Продолжительность: 01:39:30
Перевод: Профессиональный (многоголосый, закадровый) - NewComers



Информация о файле:
Кодек: AVC
Формат: MKV
Качество: WEB-DLRip-AVC
Видео: MPEG-4 AVC, 1024x428, 24.000 fps, 1990 kbps
Аудио RU: AC3, 6 ch, 48 kHz, 384 kbps
Аудио EN: AC3, 6 ch, 48 kHz, 384 kbps
Субтитры: Русские, английские



x264 info: frame I:1054 Avg QP:13.73 size: 64547
x264 info: frame P:38570 Avg QP:16.30 size: 19387
x264 info: frame B:103653 Avg QP:18.20 size: 6418
General
Unique ID : 193014229273364573310231430922998942668 (0x9135303A00803BC57A50419E569C8BCC)
Complete name : D:uTorrentРипы wolf1245Prey.2022.MVO.NewComers.X264.WEB-DLRip-AVC.[wolf1245.ExKinoRay].mkv
Format : Matroska
Format version : Version 4
File size : 1.91 GiB
Duration : 1 h 39 min
Overall bit rate : 2 754 kb/s
Movie name : Prey.2022.MVO.NewComers.X264.WEB-DLRip-AVC.[wolf1245.ExKinoRay]
Encoded date : UTC 2022-08-08 19:14:49
Writing application : mkvmerge v69.0.0 ('Day And Age') 64-bit
Writing library : libebml v1.4.2 + libmatroska v1.6.4
Video
ID : 1
Format : AVC
Format/Info : Advanced Video Codec
Format profile : [email protected]
Format settings : CABAC / 12 Ref Frames
Format settings, CABAC : Yes
Format settings, Reference frames : 12 frames
Codec ID : V_MPEG4/ISO/AVC
Duration : 1 h 39 min
Bit rate : 1 990 kb/s
Width : 1 024 pixels
Height : 428 pixels
Display aspect ratio : 2.40:1
Frame rate mode : Constant
Frame rate : 24.000 FPS
Color space : YUV
Chroma subsampling : 4:2:0
Bit depth : 8 bits
Scan type : Progressive
Bits/(Pixel*Frame) : 0.189
Stream size : 1.38 GiB (72%)
Title : -=[wolf1245.ExKinoRay]=-
Writing library : x264 core 163 r3060 5db6aa6
Encoding settings : cabac=1 / ref=12 / deblock=1:-2:-1 / analyse=0x3:0x133 / me=umh / subme=9 / psy=1 / psy_rd=0.98:0.10 / mixed_ref=1 / me_range=32 / chroma_me=1 / trellis=2 / 8x8dct=1 / cqm=0 / deadzone=22,11 / fast_pskip=1 / chroma_qp_offset=-3 / threads=10 / lookahead_threads=2 / sliced_threads=0 / nr=0 / decimate=0 / interlaced=0 / bluray_compat=0 / constrained_intra=0 / bframes=12 / b_pyramid=2 / b_adapt=2 / b_bias=0 / direct=3 / weightb=1 / open_gop=0 / weightp=2 / keyint=240 / keyint_min=24 / scenecut=40 / intra_refresh=0 / rc_lookahead=100 / rc=2pass / mbtree=0 / bitrate=1990 / ratetol=1.0 / qcomp=0.75 / qpmin=0 / qpmax=69 / qpstep=4 / cplxblur=20.0 / qblur=0.5 / vbv_maxrate=50000 / vbv_bufsize=62500 / nal_hrd=none / filler=0 / ip_ratio=1.37 / pb_ratio=1.27 / aq=3:0.90
Language : English
Default : Yes
Forced : No
Color range : Limited
Color primaries : BT.709
Transfer characteristics : BT.709
Matrix coefficients : BT.709
Audio #1
ID : 2
Format : AC-3
Format/Info : Audio Coding 3
Commercial name : Dolby Digital
Codec ID : A_AC3
Duration : 1 h 39 min
Bit rate mode : Constant
Bit rate : 384 kb/s
Channel(s) : 6 channels
Channel layout : L R C LFE Ls Rs
Sampling rate : 48.0 kHz
Frame rate : 31.250 FPS (1536 SPF)
Compression mode : Lossy
Stream size : 273 MiB (14%)
Title : MVO | NewComers | RUS
Language : Russian
Service kind : Complete Main
Default : Yes
Forced : No
Audio #2
ID : 3
Format : AC-3
Format/Info : Audio Coding 3
Commercial name : Dolby Digital
Codec ID : A_AC3
Duration : 1 h 39 min
Bit rate mode : Constant
Bit rate : 384 kb/s
Channel(s) : 6 channels
Channel layout : L R C LFE Ls Rs
Sampling rate : 48.0 kHz
Frame rate : 31.250 FPS (1536 SPF)
Compression mode : Lossy
Stream size : 273 MiB (14%)
Title : Original | ENG
Language : English
Service kind : Complete Main
Default : No
Forced : No
Text #1
ID : 4
Format : UTF-8
Codec ID : S_TEXT/UTF8
Codec ID/Info : UTF-8 Plain Text
Duration : 1 h 28 min
Bit rate : 23 b/s
Count of elements : 359
Stream size : 15.6 KiB (0%)
Title : Полные
Language : Russian
Default : No
Forced : No
Text #2
ID : 5
Format : UTF-8
Codec ID : S_TEXT/UTF8
Codec ID/Info : UTF-8 Plain Text
Duration : 1 h 28 min
Bit rate : 15 b/s
Count of elements : 381
Stream size : 9.78 KiB (0%)
Language : English
Default : No
Forced : No
Menu
01:32:13.000 : en:Credits
Релиз от:
Автор релиза:



Скачать Добыча через торрент http://i120.fastpic.org/big/2022/0808/78/8e7482545c0b3ae69b85042c8d127a78.jpg Скачать, смотреть онлайн Добыча бесплантно в хорошем качестве Описание: Название: Добыча Оригинальное название: Prey Год выхода: 2022 Жанр: Ужасы, фантастика, боевик Режиссер: Дэн Трахтенберг В ... 9.8 10 16
Info! Золотая раздача, скачанное не засчитывается.
Торрент: Зарегистрирован [2022-08-08 19:24] · скачан: 815 раз
Статус: √ проверено
Размер: 1.91 GB
Как cкачать? Как скачать Добыча через торрент | UTorrent

% Раздел Тема Автор DL S | L
Ultra HD (UHD: 2K, 4K, 8K) [ 12.48 GB ] Добыча / Prey | Jaskier | 2160p bober100 Скачать
16 | 0
Фильмы 2022-2023 [DVDrip, WEB-DLRip, HDrip] (DUB, MVO) [ 1.76 GB ] Добыча / Prey | DUB | DLRip-AVC bober100 Скачать
15 | 0
Фильмы (WEB-DL 720p, 1080p) [ 5.02 GB ] Добыча / Prey | DUB | 1080p bober100 Скачать
10 | 0
Фильмы (WEB-DL 720p, 1080p) [ 5.68 GB ] Добыча / Prey | Jaskier | 1080p bober100 Скачать
27 | 1
Фильмы (HD 720p, 1080p) (48-60 fps) [ 3.44 GB ] Добыча / Prey | | DLRip 720p / 60 FPS MVO slaventi-69 Скачать
9 | 0
Фильмы 2022-2023 [DVDrip, WEB-DLRip, HDrip] (DUB, MVO) [ 1.46 GB ] Добыча / Prey | NewComers | DLRip MVO jump88 Скачать
15 | 0
Фильмы 2022-2023 [DVDrip, WEB-DLRip, HDrip] (DUB, MVO) [ 1.46 GB ] Добыча / Prey | NewComers | WEBRip-AVC bober100 Скачать
9 | 0

28-11-2019 20:33  


Отключить вcю реклaмy на сайте, в т.ч. и в плеере онлайн просмотра!

08-12-2022 22:35 Добыча Скачать торрент  

пол фильма показывают дикую природу



    Дорогой пользователь! Огромная просьба, поблагодарите релизера, оцените раздачу и оставьте свои комментарий, если Вы скачали Добыча через торрент бесплатно!!
    Комментировать посты могут только пользователи прошедшие не сложную регистрацию
    Показать сообщения:    


    Добыча через торрент
    Скачать бесплатно Добыча
    Добыча скачать торрент
    Добыча смотреть онлайн
    Cкачать фильм Добыча бесплатно
    Добыча скачать торрент в хорошем качестве
    Добыча смотреть онлайн бесплатно в хорошем качестве
    Вы можете начинать темы
    Вы можете отвечать на сообщения
    Вы не можете редактировать свои сообщения
    Вы не можете удалять свои сообщения
    Вы не можете голосовать в опросах
    Вы не можете прикреплять файлы к сообщениям
    Вы можете скачивать файлы
    Добыча / Prey [2022, Ужасы, фантастика, боевик, WEB-DLRip-AVC] MVO [NewComers] смотреть онлайн, скачать торрент picoco.icu